Скачать через торрент музыку Болот БайрышеBolot Bairyshev - Алас бесплатно без регистрации torrent

Если у вас наблюдаются проблемы со скриншотами, переходом по ссылками, скачиванием торрентов - проблемы в блокировщике рекламы AdBlock. #хорошегоДня!


Статистика раздачи
Размер:  267 MB   |    Зарегистрирован:  4 года   |    .torrent скачан:  165 раз   |   
Раздают:  1  
   
Загрузка...
 
Автор Сообщение

Polarnik

avatar Polarnik


Болот Байрышев/Bolot Bairyshev / Алас/Alas

Жанр: World Music, Ethno, Throat Singing, Altai
Страна-производитель диска: Россия
Год издания: 2012
Издатель (лейбл): Bolot Bairyshev
Страна: Россия
Аудиокодек: FLAC (*.flac)
Тип рипа: tracks+.cue
Битрейт аудио: lossless
Продолжительность: 55:04
Источник (релизер): Собственный рип
Наличие сканов в содержимом раздачи: нет
Треклист:
01. Алас
02. Кургандардын сыгыды
03. Солоны
04. Очы бала
05. Айрылыш
06. Турналардын биjези
07. Алтайым
08. Укок
09. Туулардын jанары
10. Энемге алкыш
11. Кай кожон
12. Комус
13. Пазырык
Exact Audio Copy V1.0 beta 3 from 29. August 2011

Отчёт EAC об извлечении, выполненном 24. сентября 2013, 22:45

Болот Байрышев / Алас

Дисковод: _NEC CD-RW NR-9300A Adapter: 1 ID: 1

Режим чтения : ДостоверностьИспользование точного потока : ДаОтключение кэша аудио : ДаИспользование указателей C2 : Нет

Коррекция смещения при чтении : 685Способность читать области Lead-in и Lead-out : НетЗаполнение пропущенных сэмплов тишиной : ДаУдаление блоков с тишиной в начале и конце : НетПри вычислениях CRC использовались нулевые сэмплы : ДаИнтерфейс : Встроенный Win32-интерфейс для Win NT/2000Обработка зазоров : Добавлено к предыдущему треку

Выходной формат : Пользовательский кодировщикВыбранный битрейт : 128 kBit/sКачество : ВысокийДобавление ID3-тега : НетУтилита сжатия : C:\Program Files\Exact Audio Copy\Flac\flac.exeДополнительные параметры : -V -8 -T "Genre=%genre%" -T "Artist=%artist%" -T "Title=%title%" -T "Album=%albumtitle%" -T "Date=%year%" -T "Tracknumber=%tracknr%" -T "Comment=%comment%" %source%

TOC извлечённого CD

Трек | Старт | Длительность | Начальный сектор | Конечный сектор --------------------------------------------------------------------- 1 | 0:00.00 | 2:27.45 | 0 | 11069 2 | 2:27.45 | 6:01.61 | 11070 | 38205 3 | 8:29.31 | 4:14.53 | 38206 | 57308 4 | 12:44.09 | 9:10.32 | 57309 | 98590 5 | 21:54.41 | 2:44.24 | 98591 | 110914 6 | 24:38.65 | 2:18.64 | 110915 | 121328 7 | 26:57.54 | 1:54.20 | 121329 | 129898 8 | 28:51.74 | 5:48.41 | 129899 | 156039 9 | 34:40.40 | 6:33.27 | 156040 | 185541 10 | 41:13.67 | 3:41.59 | 185542 | 202175 11 | 44:55.51 | 4:57.45 | 202176 | 224495 12 | 49:53.21 | 3:30.72 | 224496 | 240317 13 | 53:24.18 | 4:19.30 | 240318 | 259772

Трек 1

Имя файла C:\Documents and Settings\Администратор\Рабочий стол\Болот Байрышев - Алас (2012)\01. Алас.wav

Длина предзазора 0:00:02.00

Пиковый уровень 86.5 % Скорость извлечения 4.1 X Качество трека 100.0 % CRC теста ADE2ED4E CRC копии ADE2ED4E Трек не обнаружен в базе AccurateRip Копирование... OK

Трек 2

Имя файла C:\Documents and Settings\Администратор\Рабочий стол\Болот Байрышев - Алас (2012)\02. Кургандардын сыгыды.wav

Пиковый уровень 98.8 % Скорость извлечения 5.1 X Качество трека 100.0 % CRC теста E294E0D9 CRC копии E294E0D9 Трек не обнаружен в базе AccurateRip Копирование... OK

Трек 3

Имя файла C:\Documents and Settings\Администратор\Рабочий стол\Болот Байрышев - Алас (2012)\03. Солоны.wav

Пиковый уровень 62.3 % Скорость извлечения 3.9 X Качество трека 99.8 % CRC теста CE07BD39 CRC копии CE07BD39 Трек не обнаружен в базе AccurateRip Копирование... OK

Трек 4

Имя файла C:\Documents and Settings\Администратор\Рабочий стол\Болот Байрышев - Алас (2012)\04. Очы бала.wav

Пиковый уровень 98.8 % Скорость извлечения 6.2 X Качество трека 99.9 % CRC теста 4D1DF9A0 CRC копии 4D1DF9A0 Трек не обнаружен в базе AccurateRip Копирование... OK

Трек 5

Имя файла C:\Documents and Settings\Администратор\Рабочий стол\Болот Байрышев - Алас (2012)\05. Айрылыш.wav

Пиковый уровень 46.0 % Скорость извлечения 3.9 X Качество трека 99.8 % CRC теста C2108613 CRC копии C2108613 Трек не обнаружен в базе AccurateRip Копирование... OK

Трек 6

Имя файла C:\Documents and Settings\Администратор\Рабочий стол\Болот Байрышев - Алас (2012)\06. Турналардын биjези.wav

Пиковый уровень 69.0 % Скорость извлечения 6.1 X Качество трека 100.0 % CRC теста 4CBF499C CRC копии 4CBF499C Трек не обнаружен в базе AccurateRip Копирование... OK

Трек 7

Имя файла C:\Documents and Settings\Администратор\Рабочий стол\Болот Байрышев - Алас (2012)\07. Алтайым.wav

Пиковый уровень 33.2 % Скорость извлечения 5.9 X Качество трека 100.0 % CRC теста 87D91A49 CRC копии 87D91A49 Трек не обнаружен в базе AccurateRip Копирование... OK

Трек 8

Имя файла C:\Documents and Settings\Администратор\Рабочий стол\Болот Байрышев - Алас (2012)\08. Укок.wav

Пиковый уровень 96.9 % Скорость извлечения 7.4 X Качество трека 100.0 % CRC теста DB19C10B CRC копии DB19C10B Трек не обнаружен в базе AccurateRip Копирование... OK

Трек 9

Имя файла C:\Documents and Settings\Администратор\Рабочий стол\Болот Байрышев - Алас (2012)\09. Туулардын jанары.wav

Пиковый уровень 98.8 % Скорость извлечения 8.0 X Качество трека 100.0 % CRC теста 5F23EF4D CRC копии 5F23EF4D Трек не обнаружен в базе AccurateRip Копирование... OK

Трек 10

Имя файла C:\Documents and Settings\Администратор\Рабочий стол\Болот Байрышев - Алас (2012)\10. Энемге алкыш.wav

Пиковый уровень 73.2 % Скорость извлечения 6.8 X Качество трека 99.9 % CRC теста 3DD58FD7 CRC копии 3DD58FD7 Трек не обнаружен в базе AccurateRip Копирование... OK

Трек 11

Имя файла C:\Documents and Settings\Администратор\Рабочий стол\Болот Байрышев - Алас (2012)\11. Кай кожон.wav

Пиковый уровень 85.3 % Скорость извлечения 8.3 X Качество трека 100.0 % CRC теста 273ABC8D CRC копии 273ABC8D Трек не обнаружен в базе AccurateRip Копирование... OK

Трек 12

Имя файла C:\Documents and Settings\Администратор\Рабочий стол\Болот Байрышев - Алас (2012)\12. Комус.wav

Пиковый уровень 84.5 % Скорость извлечения 8.1 X Качество трека 100.0 % CRC теста 9B325799 CRC копии 9B325799 Трек не обнаружен в базе AccurateRip Копирование... OK

Трек 13

Имя файла C:\Documents and Settings\Администратор\Рабочий стол\Болот Байрышев - Алас (2012)\13. Пазырык.wav

Пиковый уровень 46.7 % Скорость извлечения 8.5 X Качество трека 100.0 % CRC теста B954F273 CRC копии B954F273 Трек не обнаружен в базе AccurateRip Копирование... OK

Ни одного трека нет в базе AccurateRip

Ошибок не произошло

Конец отчёта

==== Контрольная сумма отчёта 6985203C493E113BD44801ACFE2264A430BFFEA9D24FAC859407B88B99795B35 ====
REM GENRE FolkREM DATE 2012REM DISCID BB0D870DREM COMMENT "ExactAudioCopy v1.0b3"PERFORMER "Болот Байрышев"TITLE "Алас"FILE "01. Алас.wav" WAVE TRACK 01 AUDIO TITLE "Алас" PERFORMER "Болот Байрышев" INDEX 01 00:00:00FILE "02. Кургандардын сыгыды.wav" WAVE TRACK 02 AUDIO TITLE "Кургандардын сыгыды" PERFORMER "Болот Байрышев" INDEX 01 00:00:00FILE "03. Солоны.wav" WAVE TRACK 03 AUDIO TITLE "Солоны" PERFORMER "Болот Байрышев" INDEX 01 00:00:00FILE "04. Очы бала.wav" WAVE TRACK 04 AUDIO TITLE "Очы бала" PERFORMER "Болот Байрышев" INDEX 01 00:00:00FILE "05. Айрылыш.wav" WAVE TRACK 05 AUDIO TITLE "Айрылыш" PERFORMER "Болот Байрышев" INDEX 01 00:00:00FILE "06. Турналардын биjези.wav" WAVE TRACK 06 AUDIO TITLE "Турналардын биjези" PERFORMER "Болот Байрышев" INDEX 01 00:00:00FILE "07. Алтайым.wav" WAVE TRACK 07 AUDIO TITLE "Алтайым" PERFORMER "Болот Байрышев" INDEX 01 00:00:00FILE "08. Укок.wav" WAVE TRACK 08 AUDIO TITLE "Укок" PERFORMER "Болот Байрышев" INDEX 01 00:00:00FILE "09. Туулардын jанары.wav" WAVE TRACK 09 AUDIO TITLE "Туулардын jанары" PERFORMER "Болот Байрышев" INDEX 01 00:00:00FILE "10. Энемге алкыш.wav" WAVE TRACK 10 AUDIO TITLE "Энемге алкыш" PERFORMER "Болот Байрышев" INDEX 01 00:00:00FILE "11. Кай кожон.wav" WAVE TRACK 11 AUDIO TITLE "Кай кожон" PERFORMER "Болот Байрышев" INDEX 01 00:00:00FILE "12. Комус.wav" WAVE TRACK 12 AUDIO TITLE "Комус" PERFORMER "Болот Байрышев" INDEX 01 00:00:00FILE "13. Пазырык.wav" WAVE TRACK 13 AUDIO TITLE "Пазырык" PERFORMER "Болот Байрышев" INDEX 01 00:00:00
Болот Байрышев - Заслуженный артист Российской Федерации, Заслуженный артист Республики Алтай, всемирно известный мастер-исполнитель традиционного алтайского горлового пения - кай, в совершенстве владеющий игрой на национальных музыкальных инструментах - топшуур, комус, шоор и др. Представляя традиционную музыкальную культуру Алтая, певец объехал весь мир и заслуженно считается одним из ярчайших представителей жанра world music.
Традиционное алтайское горловое пение - кай в сопровождении аутентичных национальных инструментов.


Трекер:  [ 25-Сен-2013 14:30 ]

  

Скачать .torrent

Размер .torrent файла 11 KB


Размер: 267 MB
Хэш (hash) релиза: 129988f26302350f7d11de00841e95bbd8079270

Еще никто не оставлял запись к записи скачать торрент Болот БайрышеBolot Bairyshev - Алас . Будь первым!

!Обратная связь