Скачать через торрент музыку Art-Kins - Incantation Which Spreads over Tibet - 2012, FLAC бесплатно без регистрации torrent

Если у вас наблюдаются проблемы со скриншотами, переходом по ссылками, скачиванием торрентов - проблемы в блокировщике рекламы AdBlock. #хорошегоДня!


Статистика раздачи
Размер:  399 MB   |    Зарегистрирован:  3 года 10 месяцев   |    .torrent скачан:  147 раз   |   
Раздают:  1  
   
Загрузка...
 
Автор Сообщение

Polarnik

avatar Polarnik


Art-Kins - Incantation Which Spreads over Tibet

Жанр: Buddhist mantra
Страна-производитель диска: China
Год издания: 2012
Страна: China
Аудиокодек: FLAC (*.flac)
Тип рипа: image+.cue
Битрейт аудио: lossless
Продолжительность: 1:05:14
Источник (релизер): собственный рип
Наличие сканов в содержимом раздачи: да
Треклист:
1. Vairocana Buddha Mantra
2. Medicine Buddha Mantra
3. Sangharama Bodhisattva Mantra
4. Cundi Bodhisattva Mantra
5. Om Mani Padme Hum
6. 100 Syllable Vajrasattva Mantra
7. Maitreya Buddha Mantra
8. Mantra of The White Umbrella Goddess
9. Kalachakra Mantra
10. Padmasambhava Mantra
11. Green Tara Mantra
12. Jambhala Mantra
http://www.youtube.com/watch?v=c5kmSk3Hae8
http://www.youtube.com/watch?v=jKXqjonEx6A
http://www.youtube.com/watch?v=q-ufm6gFjTc
Exact Audio Copy V1.0 beta 3 from 29. August 2011

Отчёт EAC об извлечении, выполненном 15. января 2013, 15:20

Various Artists / Incantation Which Spreads over Tibet

Дисковод: PIONEER DVD-RW DVR-219L Adapter: 1 ID: 0

Режим чтения : ДостоверностьИспользование точного потока : ДаОтключение кэша аудио : ДаИспользование указателей C2 : Нет

Коррекция смещения при чтении : 6Способность читать области Lead-in и Lead-out : НетЗаполнение пропущенных сэмплов тишиной : ДаУдаление блоков с тишиной в начале и конце : НетПри вычислениях CRC использовались нулевые сэмплы : ДаИнтерфейс : Встроенный Win32-интерфейс для Win NT/2000

Выходной формат : Внутренние WAV-операцииФормат сэмплов : 44.100 Гц; 16 бит; стерео

TOC извлечённого CD

Трек | Старт | Длительность | Начальный сектор | Конечный сектор --------------------------------------------------------------------- 1 | 0:00.00 | 5:20.31 | 0 | 24030 2 | 5:20.31 | 6:37.41 | 24031 | 53846 3 | 11:57.72 | 6:08.59 | 53847 | 81505 4 | 18:06.56 | 2:04.43 | 81506 | 90848 5 | 20:11.24 | 4:39.71 | 90849 | 111844 6 | 24:51.20 | 5:08.61 | 111845 | 135005 7 | 30:00.06 | 6:53.64 | 135006 | 166044 8 | 36:53.70 | 4:46.46 | 166045 | 187540 9 | 41:40.41 | 6:34.10 | 187541 | 217100 10 | 48:14.51 | 5:11.14 | 217101 | 240439 11 | 53:25.65 | 6:23.35 | 240440 | 269199 12 | 59:49.25 | 5:25.08 | 269200 | 293582

Характеристики диапазона извлечения и сообщения об ошибках

Выбранный диапазон

Имя файла C:\Downloads\Various Artists - Incantation Which Spreads over Tibet.wav

Пиковый уровень 100.0 % Скорость извлечения 1.7 X Качество диапазона 100.0 % CRC копии CDD87216 Копирование... OK

Ошибок не произошло

Конец отчёта

==== Контрольная сумма отчёта 41F162A5FD397489D447BA63956DFCA6E229C7ADCE9B9CDE2EE2B2A8CFB96C6E ====


Трекер:  [ 25-Сен-2013 14:32 ]

  

Скачать .torrent

Размер .torrent файла 16 KB


Размер: 399 MB
Хэш (hash) релиза: f204aabb9c43a5a38f371e7f673025514e3d10c4

Еще никто не оставлял запись к записи скачать торрент Art-Kins - Incantation Which Spreads over Tibet - 2012, FLAC . Будь первым!

!Обратная связь