Скачать через торрент музыку The Klezmatics - Tuml = Lebn – The Best of the First 20 Years - 2008, FLAC бесплатно без регистрации torrent

Если у вас наблюдаются проблемы со скриншотами, переходом по ссылками, скачиванием торрентов - проблемы в блокировщике рекламы AdBlock. #хорошегоДня!


Статистика раздачи
Размер:  507 MB   |    Зарегистрирован:  4 года 2 месяца   |    .torrent скачан:  138 раз   |   
Раздают:  1  
   
Загрузка...
 
Автор Сообщение

Polarnik

avatar Polarnik


The Klezmatics / Tuml = Lebn – The Best of the First 20 Years

Жанр: Jewish, Klezmer, Yiddish
Страна-производитель диска: Germany
Год издания диска: 2008
Издатель (лейбл): Piranha Musik
Номер по каталогу: CD-PIR2233
Аудиокодек: FLAC
Тип рипа: tracks+.cue
Битрейт аудио: lossless
Продолжительность: 1:16:37
Источник: CD
сайт-источник/ник/другое: Max Monteiro
Наличие сканов в содержимом раздачи: нет
Треклист:

01. NY Psycho Freyleks (trad., arr. Klezmatics) 4:57
02. Shprayz ikh mir (S. Kahn / E. Teitelbaum / trad., arr. Klezmatics) 3:06
03. Shvarts un vays (F. London) 4:56
04. Man in a Hat (David Lindsay / trad. / Klezmatics) 3:02
05. Fun Tashlikh (trad., arr. F. London w/ Klezmatics) 5:49
06. Ershter Vals (Chaim Towber / trad., arr. Klezmatics) 4:06
07. Perets-tants (F. London) 3:34
08. Shnirele, Perele (trad., arr. Klezmatics) 6:12
09. Bulgars # 2 (Tantsn un shpringen) (Joseph Moskowitz / Lisa Gutkin / Abe Schwartz / Klezmatics) 4:53
10. Dzhankoye (trad., arr. Klezmatics) 2:57
11. Davenen (F. London) 4:01
12. Kats un moyz (F. London) 5:17
13. Mizmor shir lehanef (Michael Wex / F. London) 5:17
14. Fisherlid (Aliza Greenblatt / trad. / F. London) 8:34
15. Sirba Matey Matey (trad., arr. Matt Darriau) 4:09
16. Ale Brider (live) (trad., arr. Klezmatics) 5:48
Exact Audio Copy V1.0 beta 3 from 29. August 2011

EAC extraction logfile from 20. September 2013, 19:11

The Klezmatics / Tuml = Lebn - The Best of the First 20 Years

Used drive : SlimtypeeNAU508 5 Adapter: 1 ID: 0

Read mode : SecureUtilize accurate stream : YesDefeat audio cache : YesMake use of C2 pointers : No

Read offset correction : 6Overread into Lead-In and Lead-Out : NoFill up missing offset samples with silence : YesDelete leading and trailing silent blocks : NoNull samples used in CRC calculations : YesUsed interface : Native Win32 interface for Win NT & 2000Gap handling : Appended to previous track

Used output format : User Defined EncoderSelected bitrate : 768 kBit/sQuality : HighAdd ID3 tag : NoCommand line compressor : C:\Program Files (x86)\Exact Audio Copy\Flac\flac.exeAdditional command line options : -8 -V -T "ARTIST=%artist%" -T "TITLE=%title%" -T "ALBUM=%albumtitle%" -T "DATE=%year%" -T "TRACKNUMBER=%tracknr%" -T "GENRE=%genre%" -T "PERFORMER=%albuminterpret%" -T "COMPOSER=%composer%" %haslyrics%--tag-from-file=LYRICS="%lyricsfile%"%haslyrics% -T "ALBUMARTIST=%albumartist%" -T "DISCNUMBER=%cdnumber%" -T "TOTALDISCS=%totalcds%" -T "TOTALTRACKS=%numtracks%" -T "COMMENT=%comment%" %source% -o %dest%

TOC of the extracted CD

Track | Start | Length | Start sector | End sector --------------------------------------------------------- 1 | 0:00.00 | 4:56.39 | 0 | 22238 2 | 4:56.39 | 3:05.67 | 22239 | 36180 3 | 8:02.31 | 4:55.74 | 36181 | 58379 4 | 12:58.30 | 3:02.36 | 58380 | 72065 5 | 16:00.66 | 5:48.46 | 72066 | 98211 6 | 21:49.37 | 4:06.29 | 98212 | 116690 7 | 25:55.66 | 3:33.38 | 116691 | 132703 8 | 29:29.29 | 6:11.56 | 132704 | 160584 9 | 35:41.10 | 4:52.49 | 160585 | 182533 10 | 40:33.59 | 2:57.07 | 182534 | 195815 11 | 43:30.66 | 4:01.00 | 195816 | 213890 12 | 47:31.66 | 5:17.00 | 213891 | 237665 13 | 52:48.66 | 5:16.41 | 237666 | 261406 14 | 58:05.32 | 8:34.34 | 261407 | 299990 15 | 66:39.66 | 4:09.00 | 299991 | 318665 16 | 70:48.66 | 5:48.29 | 318666 | 344794

Track 1

Filename C:\EAC rips\01 - NY Psycho Freylekhs.wav

Pre-gap length 0:00:02.00

Peak level 99.9 % Extraction speed 2.4 X Track quality 100.0 % Test CRC 1B9FD0AD Copy CRC 1B9FD0AD Accurately ripped (confidence 3) [86DECED9] (AR v1) Copy OK

Track 2

Filename C:\EAC rips\02 - Shprayz ikh mir.wav

Pre-gap length 0:00:02.23

Peak level 99.9 % Extraction speed 2.0 X Track quality 99.9 % Test CRC 5A5CDF61 Copy CRC 5A5CDF61 Accurately ripped (confidence 3) [59521319] (AR v1) Copy OK

Track 3

Filename C:\EAC rips\03 - Shvarts un vays.wav

Pre-gap length 0:00:02.23

Peak level 100.0 % Extraction speed 2.8 X Track quality 100.0 % Test CRC 72DFB183 Copy CRC 72DFB183 Accurately ripped (confidence 3) [1B83B3E7] (AR v1) Copy OK

Track 4

Filename C:\EAC rips\04 - Man in a Hat.wav

Pre-gap length 0:00:02.22

Peak level 99.9 % Extraction speed 2.8 X Track quality 100.0 % Test CRC A6A21F77 Copy CRC A6A21F77 Accurately ripped (confidence 3) [21E1CD9E] (AR v1) Copy OK

Track 5

Filename C:\EAC rips\05 - Fun Tashlikh.wav

Pre-gap length 0:00:03.09

Peak level 99.9 % Extraction speed 2.8 X Track quality 99.9 % Test CRC B6E50DCF Copy CRC B6E50DCF Accurately ripped (confidence 3) [04A74A1C] (AR v1) Copy OK

Track 6

Filename C:\EAC rips\06 - Ershter Vals.wav

Pre-gap length 0:00:02.22

Peak level 99.9 % Extraction speed 3.4 X Track quality 100.0 % Test CRC 13BA2041 Copy CRC 13BA2041 Accurately ripped (confidence 2) [2881AA1B] (AR v2) Copy OK

Track 7

Filename C:\EAC rips\07 - Perets-tants.wav

Pre-gap length 0:00:03.03

Peak level 99.0 % Extraction speed 3.4 X Track quality 100.0 % Test CRC 95D28E4E Copy CRC 95D28E4E Accurately ripped (confidence 3) [BCF3BE7B] (AR v1) Copy OK

Track 8

Filename C:\EAC rips\08 - Shnirele, Perele.wav

Pre-gap length 0:00:02.23

Peak level 99.9 % Extraction speed 3.9 X Track quality 100.0 % Test CRC D2489914 Copy CRC D2489914 Accurately ripped (confidence 3) [351C9136] (AR v1) Copy OK

Track 9

Filename C:\EAC rips\09 - Bulgars # 2 (Tantsn un shpringen).wav

Pre-gap length 0:00:02.23

Peak level 99.9 % Extraction speed 3.9 X Track quality 100.0 % Test CRC 90666D83 Copy CRC 90666D83 Accurately ripped (confidence 3) [6A7D7BBA] (AR v1) Copy OK

Track 10

Filename C:\EAC rips\10 - Dzhankoye.wav

Pre-gap length 0:00:02.23

Peak level 99.9 % Extraction speed 3.8 X Track quality 100.0 % Test CRC D04A0A8B Copy CRC D04A0A8B Accurately ripped (confidence 3) [2AAA52EE] (AR v1) Copy OK

Track 11

Filename C:\EAC rips\11 - Davenen.wav

Pre-gap length 0:00:02.70

Peak level 98.9 % Extraction speed 3.3 X Track quality 99.9 % Test CRC 61F2631B Copy CRC 61F2631B Accurately ripped (confidence 3) [4A7BC45A] (AR v1) Copy OK

Track 12

Filename C:\EAC rips\12 - Kats un moyz.wav

Pre-gap length 0:00:02.15

Peak level 92.5 % Extraction speed 4.3 X Track quality 100.0 % Test CRC E879FFB2 Copy CRC E879FFB2 Accurately ripped (confidence 3) [85DED338] (AR v1) Copy OK

Track 13

Filename C:\EAC rips\13 - Mizmor shir lehanef.wav

Pre-gap length 0:00:02.23

Peak level 100.0 % Extraction speed 4.6 X Track quality 100.0 % Test CRC A37AA3FC Copy CRC A37AA3FC Accurately ripped (confidence 3) [72DD5203] (AR v1) Copy OK

Track 14

Filename C:\EAC rips\14 - Fisherlid.wav

Pre-gap length 0:00:02.13

Peak level 99.9 % Extraction speed 4.9 X Track quality 100.0 % Test CRC D9A6B749 Copy CRC D9A6B749 Accurately ripped (confidence 3) [6ED1783F] (AR v1) Copy OK

Track 15

Filename C:\EAC rips\15 - Sirba Matey Matey.wav

Pre-gap length 0:00:03.23

Peak level 100.0 % Extraction speed 3.9 X Track quality 99.9 % Test CRC F5124128 Copy CRC F5124128 Accurately ripped (confidence 3) [4FC50026] (AR v1) Copy OK

Track 16

Filename C:\EAC rips\16 - Ale Brider (live).wav

Pre-gap length 0:00:03.27

Peak level 100.0 % Extraction speed 5.0 X Track quality 100.0 % Test CRC D4763FED Copy CRC D4763FED Accurately ripped (confidence 3) [FF0F2964] (AR v1) Copy OK

All tracks accurately ripped

No errors occurred

End of status report

---- CUETools DB Plugin V2.1.4

[CTDB TOCID: gyPfFPya5qDoCSEl45g.k4yqsxQ-] foundSubmit result: gyPfFPya5qDoCSEl45g.k4yqsxQ- has been confirmedTrack | CTDB Status 1 | (1/1) Accurately ripped 2 | (1/1) Accurately ripped 3 | (1/1) Accurately ripped 4 | (1/1) Accurately ripped 5 | (1/1) Accurately ripped 6 | (1/1) Accurately ripped 7 | (1/1) Accurately ripped 8 | (1/1) Accurately ripped 9 | (1/1) Accurately ripped 10 | (1/1) Accurately ripped 11 | (1/1) Accurately ripped 12 | (1/1) Accurately ripped 13 | (1/1) Accurately ripped 14 | (1/1) Accurately ripped 15 | (1/1) Accurately ripped 16 | (1/1) Accurately ripped

==== Log checksum 7C4CDB564784B2F495E4887E13EDA82F7A131896FB9434EDB43D44A64A638CC6 ====
REM GENRE KlezmerREM DATE 2008REM DISCID D311F510REM COMMENT "ExactAudioCopy v1.0b3"PERFORMER "The Klezmatics"TITLE "Tuml = Lebn - The Best of the First 20 Years"FILE "01 - NY Psycho Freylekhs.wav" WAVE TRACK 01 AUDIO TITLE "NY Psycho Freylekhs" PERFORMER "The Klezmatics" ISRC DEL129102502 INDEX 01 00:00:00 TRACK 02 AUDIO TITLE "Shprayz ikh mir" PERFORMER "The Klezmatics" ISRC DEL129704801 INDEX 00 04:54:16FILE "02 - Shprayz ikh mir.wav" WAVE INDEX 01 00:00:00 TRACK 03 AUDIO TITLE "Shvarts un vays" PERFORMER "The Klezmatics" ISRC DEL129704806 INDEX 00 03:03:44FILE "03 - Shvarts un vays.wav" WAVE INDEX 01 00:00:00 TRACK 04 AUDIO TITLE "Man in a Hat" PERFORMER "The Klezmatics" ISRC DEL129403501 INDEX 00 04:53:52FILE "04 - Man in a Hat.wav" WAVE INDEX 01 00:00:00 TRACK 05 AUDIO TITLE "Fun Tashlikh" PERFORMER "The Klezmatics" ISRC DEL129102501 INDEX 00 02:59:27FILE "05 - Fun Tashlikh.wav" WAVE INDEX 01 00:00:00 TRACK 06 AUDIO TITLE "Ershter Vals" PERFORMER "The Klezmatics" ISRC DEL129906201 INDEX 00 05:46:24FILE "06 - Ershter Vals.wav" WAVE INDEX 01 00:00:00 TRACK 07 AUDIO TITLE "Perets-tants" PERFORMER "The Klezmatics" ISRC DEL120308614 INDEX 00 04:03:26FILE "07 - Perets-tants.wav" WAVE INDEX 01 00:00:00 TRACK 08 AUDIO TITLE "Shnirele, Perele" PERFORMER "The Klezmatics" ISRC DEL129102511 INDEX 00 03:31:15FILE "08 - Shnirele, Perele.wav" WAVE INDEX 01 00:00:00 TRACK 09 AUDIO TITLE "Bulgars # 2 (Tantsn un shpringen)" PERFORMER "The Klezmatics" ISRC DEL120308608 INDEX 00 06:09:33FILE "09 - Bulgars # 2 (Tantsn un shpringen).wav" WAVE INDEX 01 00:00:00 TRACK 10 AUDIO TITLE "Dzhankoye" PERFORMER "The Klezmatics" ISRC DEL128902006 INDEX 00 04:50:26FILE "10 - Dzhankoye.wav" WAVE INDEX 01 00:00:00 TRACK 11 AUDIO TITLE "Davenen" PERFORMER "The Klezmatics" ISRC DEL120308610 INDEX 00 02:54:12FILE "11 - Davenen.wav" WAVE INDEX 01 00:00:00 TRACK 12 AUDIO TITLE "Kats un moyz" PERFORMER "The Klezmatics" ISRC DEL120308602 INDEX 00 03:58:60FILE "12 - Kats un moyz.wav" WAVE INDEX 01 00:00:00 TRACK 13 AUDIO TITLE "Mizmor shir lehanef" PERFORMER "The Klezmatics" ISRC DEL129704805 INDEX 00 05:14:52FILE "13 - Mizmor shir lehanef.wav" WAVE INDEX 01 00:00:00 TRACK 14 AUDIO TITLE "Fisherlid" PERFORMER "The Klezmatics" ISRC DEL129403502 INDEX 00 05:14:28FILE "14 - Fisherlid.wav" WAVE INDEX 01 00:00:00 TRACK 15 AUDIO TITLE "Sirba Matey Matey" PERFORMER "The Klezmatics" ISRC DEL129906218 INDEX 00 08:31:11FILE "15 - Sirba Matey Matey.wav" WAVE INDEX 01 00:00:00 TRACK 16 AUDIO TITLE "Ale Brider (live)" PERFORMER "The Klezmatics" ISRC DEL120409601 INDEX 00 04:05:48FILE "16 - Ale Brider (live).wav" WAVE INDEX 01 00:00:00
The Klezmatics:

Kurt Bjorling – Clarinet (6, 10)
Matt Darriau – Clarinet, Bass Clarinet, Alto Sax, Kaval, Flutes, Groggers, Percussion, Vocals (2, 3, 7, 9, 11-13, 15, 16)
Lisa Gutkin – Violin, Baritone Violin, Vocals (7, 9, 11, 12, 16)
David Krakauer – Clarinet, Bass Clarinet, Vocals (1, 4, 5, 8, 14)
David Licht – Drums, Percussion, Vocals (1-16)
Frank London – Trumpet, Cornet, Alto Horn, Flugelhorn, Piano, Organ, Keyboards, Groggers, Percussion, Accordion, Vocals (1-16)
Paul Morrissett – Electric and Acoustic Basses, Piano, Violin, Hardanger Fiddle, Hurdy-Gurdy, Alto and Baritone Horns, Tsimbl, Fujara, Nyenyere, Vocals (1-16)
Lorin Sklamberg – Lead Vocals, Accordion, High-Strung Guitar, Piano, Keyboards, Accordion (1-16)
Alicia Svigals – Violin, Vocals (1-6, 8, 10, 13-15)

Guests:
Alan Bern – Accordion (1)
BETTY (Amy Ziff, Bitzy Ziff and Alyson Palmer) – Vocals (14)
Ray « Chinito » Díaz – Guiro (4)
Mahmoud Fadl – Percussion (5)
Kathryn Farmer – Vocals, Piano, Organ (16)
Steven Greenmann – Violin (12)
Tine Kindermann – Vocals (8)
John Medeski – Hammond Organ (3, 13)
MOXY FRÜVOUS (Mike Ford, Murray Foster, Jian Ghomeshi and David Mathson) – Vocals (2, 4)
Joshua Nelson – Lead Vocals, Piano, Organ (16)
Avram Pengas – Bouzouki (13)
Marc Ribot – Electric Guitar (14)
Steve Sandberg – Piano (12)
Rob Schwimmer – Keyboards (11)


Трекер:  [ 25-Сен-2013 14:34 ]

  

Скачать .torrent

Размер .torrent файла 21 KB


Размер: 507 MB
Хэш (hash) релиза: 129a618c1077f2ae29032d10e46ba5cdbcef7b92

Еще никто не оставлял запись к записи скачать торрент The Klezmatics - Tuml = Lebn – The Best of the First 20 Years - 2008, FLAC . Будь первым!

!Обратная связь