Скачать через торрент Воскресенье без Бога Kami-sama no Inai Nichiyoubi бесплатно Аниме Все серии на русском torrent

Если у вас наблюдаются проблемы со скриншотами, переходом по ссылками, скачиванием торрентов - проблемы в блокировщике рекламы AdBlock. #хорошегоДня!


Статистика раздачи
Размер:  3.29 GB   |    Зарегистрирован:  3 года 11 месяцев   |    .torrent скачан:  45 раз   |   
Раздают:  1  
   
Загрузка...
 
Автор Сообщение

Polarnik

avatar Polarnik


Воскресенье без Бога / Kami-sama no Inai Nichiyoubi / Kaminai/Sunday Without God

Страна: Япония
Год выпуска: 2013 г.
Жанр: приключения, мистика
Тип: TV
Продолжительность: 12 эп., 25 мин.
Режиссер: Кумадзава Юдзи
Студия: Madhouse Studios

Описание: В одной книге сказано, что Бог «почил в день седьмой от всех дел своих». Отдыхать, конечно, надо, но в этом мире «безбожное воскресенье» явно затянулось. Пятнадцать лет назад Создатель, по слухам, покинул свое творение, отчего люди перестали рождаться и умирать. Даже после смерти человек, сознавая все, продолжает бродить по земле, медленно разрушаясь и превращаясь в зомби. Истинное упокоение таким приносят лишь хакамори, «стражи могил», странные создания, похожие на людей, но лишенные эмоций. А вот главная героиня, 12-летняя Ай Астин, не такая. Несмотря на возраст, она потомственная хакамори, принявшая должность от покойной матери, а внешне, как ни погляди – нормальная девчонка.

Только появление в родной деревне таинственного незнакомца заставило героиню усомниться в своих знаниях и способностях. Молчаливый стрелок в черном, назвавшийся прозвищем из детской сказки, показал девочке, что ничегошеньки она не понимала – ни в себе, ни в окружающих. Учиться оказалось трудно и больно – но, разобравшись в главном, Ай твердо решила спасти погибающий мир. В долгом странствии юная хакамори встретила многих людей… и не совсем людей, повидала ловушки сознания и города мертвых, и вот среди иллюзий, наконец, появились первые ключи к разгадке тайны Творца. Главное – идти вперед и не сворачивать, ведь смерти в этом мире нет, зато где-то есть Любовь!

Качество: HDTVRip
Тип релиза: Без хардсаба
Формат видео: MP4
Наличие линковки: Нет
Релиз/Автор рипа: [Leopard-Raws]
Видео: H264/AVC, 1280x720, 1457 kbps, 23.976 fps
Аудио: AAC, 192 kbps, 48000 Hz, 2 ch Язык Японский
Субтитры: ass, внешние Язык субтитров русский ; Перевод: [ LeDi-MaHo Team ] ; Перевод & лирика: MantisFL , Редакция & оформление: Holydarkness
GeneralComplete name : D:\Anime\[Leopard-Raws] Kami-sama no Inai Nichiyoubi - 01 RAW (MX 1280x720 x264 AAC).mp4Format : MPEG-4Format profile : Base MediaCodec ID : isomFile size : 284 MiBDuration : 24mn 0sOverall bit rate mode : VariableOverall bit rate : 1 653 KbpsEncoded date : UTC 2013-07-07 07:31:48Tagged date : UTC 2013-07-07 07:31:48

VideoID : 1Format : AVCFormat/Info : Advanced Video CodecFormat profile : High@L4.1Format settings, CABAC : YesFormat settings, ReFrames : 4 framesCodec ID : avc1Codec ID/Info : Advanced Video CodingDuration : 24mn 0sBit rate : 1 457 KbpsMaximum bit rate : 8 936 KbpsWidth : 1 280 pixelsHeight : 720 pixelsDisplay aspect ratio : 16:9Frame rate mode : ConstantFrame rate : 23.976 fpsColor space : YUVChroma subsampling : 4:2:0Bit depth : 8 bitsScan type : ProgressiveBits/(Pixel*Frame) : 0.066Stream size : 250 MiB (88%)Title : 264:fps=23.976@GPAC0.5.1-DEV-rev4283Writing library : x264 core 125 r2200+677M 3a754e7Encoding settings : cabac=1 / ref=4 / deblock=1:1:-1 / analyse=0x3:0x113 / me=umh / subme=9 / psy=1 / fade_compensate=0.00 / psy_rd=1.00:0.00 / mixed_ref=1 / me_range=24 / chroma_me=1 / trellis=2 / 8x8dct=1 / cqm=0 / deadzone=21,11 / fast_pskip=1 / chroma_qp_offset=-2 / threads=8 / lookahead_threads=1 / sliced_threads=0 / nr=0 / decimate=1 / interlaced=0 / bluray_compat=0 / constrained_intra=0 / fgo=0 / bframes=9 / b_pyramid=2 / b_adapt=2 / b_bias=0 / direct=1 / weightb=1 / open_gop=0 / weightp=2 / keyint=240 / keyint_min=24 / scenecut=40 / intra_refresh=0 / rc=crf / mbtree=0 / crf=19.0000 / qcomp=0.72 / qpmin=0 / qpmax=69 / qpstep=4 / ip_ratio=1.40 / pb_ratio=1.30 / aq=1:0.85Encoded date : UTC 2013-07-07 07:31:48Tagged date : UTC 2013-07-07 07:31:51Color primaries : BT.709Transfer characteristics : BT.709Matrix coefficients : BT.709

AudioID : 2Format : AACFormat/Info : Advanced Audio CodecFormat profile : LCCodec ID : 40Duration : 24mn 0sBit rate mode : VariableBit rate : 192 KbpsMaximum bit rate : 243 KbpsChannel(s) : 2 channelsChannel positions : Front: L RSampling rate : 48.0 KHzCompression mode : LossyStream size : 33.0 MiB (12%)Language : JapaneseEncoded date : UTC 2013-07-06 18:01:07Tagged date : UTC 2013-07-07 07:31:51
1. Valley of Death I
2. Valley of Death II
3. Valley of Death III
4. Ortus I
5. Ortus II
6. Ortus III
7. Goran Academy I
8. Goran Academy II
9. Where Gravekeepers Are Born
10. Class 3-4 I
11. Class 3-4 II
12.


Трекер:  [ 23-Сен-2013 18:36 ]

  

Скачать .torrent

Размер .torrent файла 20 KB


Размер: 3.29 GB
Хэш (hash) релиза: ecc81328eac636fa2e7c2ef7b203a60d40acc507
Подписка на обновления:

Еще никто не оставлял запись к записи скачать торрент Воскресенье без Бога Kami-sama no Inai Nichiyoubi . Будь первым!

!Обратная связь