Скачать через торрент музыку [CZE] бесплатно без регистрации torrent

Если у вас наблюдаются проблемы со скриншотами, переходом по ссылками, скачиванием торрентов - проблемы в блокировщике рекламы AdBlock. #хорошегоДня!


Статистика раздачи
Размер:  243 MB   |    Зарегистрирован:  4 года   |    .torrent скачан:  173 раза   |   
Раздают:  1  
   
Загрузка...
 
Автор Сообщение

Polarnik

avatar Polarnik


Karel Plíhal, Emil Pospíšil / Karel Plíhal ... Emil Pospíšil

Жанр: Поп-фолк

Страна-производитель диска: Чехия
Год издания: 1989
Издатель (лейбл): Monitor-EMI
Номер по каталогу: 0946 3 84089 2 5
Страна: Чехия

Аудиокодек: FLAC (*.flac)
Тип рипа: tracks+.cue
Битрейт аудио: lossless

Источник (релизер): Собственный рип
Наличие сканов в содержимом раздачи: нет
Треклист:
Plachetnice
Prší
Gilotina
Skončil další fet
O písničce
Vločka
Trubadůrská
Instalatérská
O Vlaku
Básník, ten má právo veta
Vstávej, holka
Nosorožec
Na půdě
Vánoční
Svíčka
Padaly hvězdy
Špína
Vdaná mandelinka bramborová v autobuse
Продолжительность: 40:01
Exact Audio Copy V1.0 beta 3 from 29. August 2011

EAC extraction logfile from 13. July 2013, 19:09

Karel Plihal A Emil Pospisil / Karel Plihal ... Emil Pospisil

Used drive : hp DVDRAM GT31L Adapter: 1 ID: 0

Read mode : SecureUtilize accurate stream : YesDefeat audio cache : YesMake use of C2 pointers : No

Read offset correction : 103Overread into Lead-In and Lead-Out : NoFill up missing offset samples with silence : YesDelete leading and trailing silent blocks : NoNull samples used in CRC calculations : YesUsed interface : Native Win32 interface for Win NT & 2000Gap handling : Appended to previous track

Used output format : User Defined EncoderSelected bitrate : 1024 kBit/sQuality : HighAdd ID3 tag : NoCommand line compressor : C:\Program Files\Exact Audio Copy\Flac\flac.exeAdditional command line options : --delete-input-file -T "artist=%artist%" -T "title=%title%" -T "album=%albumtitle%" -T "date=%year%" -T "genre=%genre%" -T "tracknumber=%tracknr2%" -T "discnumber=%cdnumber%" -8 -V %source%

TOC of the extracted CD

Track | Start | Length | Start sector | End sector --------------------------------------------------------- 1 | 0:00.00 | 1:30.00 | 0 | 6749 2 | 1:30.00 | 1:56.64 | 6750 | 15513 3 | 3:26.64 | 1:57.70 | 15514 | 24358 4 | 5:24.59 | 2:50.18 | 24359 | 37126 5 | 8:15.02 | 3:59.15 | 37127 | 55066 6 | 12:14.17 | 2:47.55 | 55067 | 67646 7 | 15:01.72 | 2:37.52 | 67647 | 79473 8 | 17:39.49 | 1:59.45 | 79474 | 88443 9 | 19:39.19 | 2:19.74 | 88444 | 98942 10 | 21:59.18 | 2:00.48 | 98943 | 107990 11 | 23:59.66 | 2:18.70 | 107991 | 118410 12 | 26:18.61 | 1:07.27 | 118411 | 123462 13 | 27:26.13 | 2:16.18 | 123463 | 133680 14 | 29:42.31 | 2:16.49 | 133681 | 143929 15 | 31:59.05 | 2:18.09 | 143930 | 154288 16 | 34:17.14 | 3:02.23 | 154289 | 167961 17 | 37:19.37 | 2:40.34 | 167962 | 179995 18 | 39:59.71 | 0:10.26 | 179996 | 180771

Track 1

Filename C:\01 - Plachetnice.wav

Pre-gap length 0:00:02.00

Peak level 97.7 % Extraction speed 0.9 X Track quality 100.0 % Test CRC 2C857132 Copy CRC 2C857132 Accurately ripped (confidence 2) [32B811BE] (AR v1) Copy OK

Track 2

Filename C:\02 - Prsi.wav

Peak level 97.7 % Extraction speed 0.9 X Track quality 99.9 % Test CRC D87816AE Copy CRC D87816AE Accurately ripped (confidence 2) [8DDCF321] (AR v1) Copy OK

Track 3

Filename C:\03 - Gilotina.wav

Peak level 97.7 % Extraction speed 1.1 X Track quality 100.0 % Test CRC 46EB0553 Copy CRC 46EB0553 Accurately ripped (confidence 2) [61C9A268] (AR v1) Copy OK

Track 4

Filename C:\04 - Skoncil Dalsi Fet.wav

Peak level 97.7 % Extraction speed 1.3 X Track quality 100.0 % Test CRC 30441AB7 Copy CRC 30441AB7 Accurately ripped (confidence 2) [6A069E0C] (AR v1) Copy OK

Track 5

Filename C:\05 - O Pisnicce.wav

Peak level 97.7 % Extraction speed 1.5 X Track quality 100.0 % Test CRC D7B27CDA Copy CRC D7B27CDA Accurately ripped (confidence 2) [90150FFF] (AR v1) Copy OK

Track 6

Filename C:\06 - Vlocka.wav

Peak level 97.7 % Extraction speed 1.5 X Track quality 100.0 % Test CRC 0F8511E1 Copy CRC 0F8511E1 Accurately ripped (confidence 2) [E3AE1FCD] (AR v1) Copy OK

Track 7

Filename C:\07 - Trubadurska.wav

Peak level 82.2 % Extraction speed 0.1 X Track quality 99.9 % Test CRC 8A7F1888 Copy CRC 8A7F1888 Accurately ripped (confidence 2) [1093127C] (AR v1) Copy OK

Track 8

Filename C:\08 - Instalaterska.wav

Peak level 97.7 % Extraction speed 1.5 X Track quality 100.0 % Test CRC F3810A17 Copy CRC F3810A17 Accurately ripped (confidence 2) [BCB9CABE] (AR v1) Copy OK

Track 9

Filename C:\09 - O Vlaku.wav

Peak level 97.7 % Extraction speed 1.6 X Track quality 100.0 % Test CRC 72FD91CE Copy CRC 72FD91CE Accurately ripped (confidence 2) [3D12F7A1] (AR v1) Copy OK

Track 10

Filename C:\10 - Basnik, Ten Ma Pravo Veta.wav

Peak level 77.6 % Extraction speed 1.6 X Track quality 100.0 % Test CRC 7D0C188E Copy CRC 7D0C188E Accurately ripped (confidence 2) [951276CF] (AR v1) Copy OK

Track 11

Filename C:\11 - Vstavej Holka.wav

Peak level 97.7 % Extraction speed 1.7 X Track quality 100.0 % Test CRC EB559055 Copy CRC EB559055 Accurately ripped (confidence 2) [1BB89B1B] (AR v1) Copy OK

Track 12

Filename C:\12 - Nosorozec.wav

Peak level 97.7 % Extraction speed 1.0 X Track quality 99.8 % Test CRC E916A189 Copy CRC E916A189 Accurately ripped (confidence 2) [7E7D82A8] (AR v1) Copy OK

Track 13

Filename C:\13 - Na Pude.wav

Peak level 97.7 % Extraction speed 1.8 X Track quality 100.0 % Test CRC 3E34F956 Copy CRC 3E34F956 Accurately ripped (confidence 2) [E9CFE8AD] (AR v1) Copy OK

Track 14

Filename C:\14 - Vanocni.wav

Peak level 97.7 % Extraction speed 0.1 X Track quality 100.0 % Test CRC AEF8971C Copy CRC AEF8971C Accurately ripped (confidence 2) [7BA25B91] (AR v1) Copy OK

Track 15

Filename C:\15 - Svicka.wav

Peak level 77.6 % Extraction speed 1.5 X Track quality 99.9 % Test CRC 8C86FE49 Copy CRC 8C86FE49 Accurately ripped (confidence 2) [1F33FAC1] (AR v1) Copy OK

Track 16

Filename C:\16 - Padaly Hvezdy.wav

Peak level 97.7 % Extraction speed 2.0 X Track quality 100.0 % Test CRC C5D9591B Copy CRC C5D9591B Accurately ripped (confidence 2) [0B9833D6] (AR v1) Copy OK

Track 17

Filename C:\17 - Spina.wav

Peak level 82.2 % Extraction speed 2.0 X Track quality 100.0 % Test CRC 45AD0326 Copy CRC 45AD0326 Accurately ripped (confidence 2) [4215B4A2] (AR v1) Copy OK

Track 18

Filename C:\18 - Vdana Mandelinka Bramborova V Autobuse.wav

Peak level 97.7 % Extraction speed 0.5 X Track quality 100.0 % Test CRC 10B5B221 Copy CRC 10B5B221 Accurately ripped (confidence 2) [58FC323B] (AR v1) Copy OK

All tracks accurately ripped

No errors occurred

End of status report
REM GENRE FolkREM DATE 1989REM DISCID D8096A12REM COMMENT "ExactAudioCopy v1.0b3"PERFORMER "Karel Plihal A Emil Pospisil"TITLE "Karel Plihal ... Emil Pospisil"FILE "01 - Plachetnice.wav" WAVE TRACK 01 AUDIO TITLE "Plachetnice" PERFORMER "Karel Plihal A Emil Pospisil" INDEX 01 00:00:00FILE "02 - Prsi.wav" WAVE TRACK 02 AUDIO TITLE "Prsi" PERFORMER "Karel Plihal A Emil Pospisil" INDEX 01 00:00:00FILE "03 - Gilotina.wav" WAVE TRACK 03 AUDIO TITLE "Gilotina" PERFORMER "Karel Plihal A Emil Pospisil" INDEX 01 00:00:00FILE "04 - Skoncil Dalsi Fet.wav" WAVE TRACK 04 AUDIO TITLE "Skoncil Dalsi Fet" PERFORMER "Karel Plihal A Emil Pospisil" INDEX 01 00:00:00FILE "05 - O Pisnicce.wav" WAVE TRACK 05 AUDIO TITLE "O Pisnicce" PERFORMER "Karel Plihal A Emil Pospisil" INDEX 01 00:00:00FILE "06 - Vlocka.wav" WAVE TRACK 06 AUDIO TITLE "Vlocka" PERFORMER "Karel Plihal A Emil Pospisil" INDEX 01 00:00:00FILE "07 - Trubadurska.wav" WAVE TRACK 07 AUDIO TITLE "Trubadurska" PERFORMER "Karel Plihal A Emil Pospisil" INDEX 01 00:00:00FILE "08 - Instalaterska.wav" WAVE TRACK 08 AUDIO TITLE "Instalaterska" PERFORMER "Karel Plihal A Emil Pospisil" INDEX 01 00:00:00FILE "09 - O Vlaku.wav" WAVE TRACK 09 AUDIO TITLE "O Vlaku" PERFORMER "Karel Plihal A Emil Pospisil" INDEX 01 00:00:00FILE "10 - Basnik, Ten Ma Pravo Veta.wav" WAVE TRACK 10 AUDIO TITLE "Basnik, Ten Ma Pravo Veta" PERFORMER "Karel Plihal A Emil Pospisil" INDEX 01 00:00:00FILE "11 - Vstavej Holka.wav" WAVE TRACK 11 AUDIO TITLE "Vstavej Holka" PERFORMER "Karel Plihal A Emil Pospisil" INDEX 01 00:00:00FILE "12 - Nosorozec.wav" WAVE TRACK 12 AUDIO TITLE "Nosorozec" PERFORMER "Karel Plihal A Emil Pospisil" INDEX 01 00:00:00FILE "13 - Na Pude.wav" WAVE TRACK 13 AUDIO TITLE "Na Pude" PERFORMER "Karel Plihal A Emil Pospisil" INDEX 01 00:00:00FILE "14 - Vanocni.wav" WAVE TRACK 14 AUDIO TITLE "Vanocni" PERFORMER "Karel Plihal A Emil Pospisil" INDEX 01 00:00:00FILE "15 - Svicka.wav" WAVE TRACK 15 AUDIO TITLE "Svicka" PERFORMER "Karel Plihal A Emil Pospisil" INDEX 01 00:00:00FILE "16 - Padaly Hvezdy.wav" WAVE TRACK 16 AUDIO TITLE "Padaly Hvezdy" PERFORMER "Karel Plihal A Emil Pospisil" INDEX 01 00:00:00FILE "17 - Spina.wav" WAVE TRACK 17 AUDIO TITLE "Spina" PERFORMER "Karel Plihal A Emil Pospisil" INDEX 01 00:00:00FILE "18 - Vdana Mandelinka Bramborova V Autobuse.wav" WAVE TRACK 18 AUDIO TITLE "Vdana Mandelinka Bramborova V Autobuse" PERFORMER "Karel Plihal A Emil Pospisil" INDEX 01 00:00:00


Трекер:  [ 25-Сен-2013 14:35 ]

  

Скачать .torrent

Размер .torrent файла 20 KB


Размер: 243 MB
Хэш (hash) релиза: 9d27f14b2570a793fa3aef04abd7cddc91008119

Торренты, похожие на [CZE] скачать торрент

Форум Название Автор Размер S L Добавлен
Rосk | Mеtаl | Аltеrnаtivе, Рunk, Indереndеnt (mр3) ·· (Melodic Death Metal / Doom Metal) Death Sentence (Cze) - Дискография 1997-2005 (2 CD, 1 EP) [MP3 (tracks), vbr-320 kbps] Galfimbul 239897489229 MB 0 0 1411756490

21:34

26-Сен-14

Фольклор, Народная и Этническая музыка (mp3) ·· [CZE](Medieval, World, Acoustic) BraAgas 2006-2012 (5 альбомов), MP3 (tracks), 192, 320 kbps Polarnik 391624326373 MB 0 0 1379472657

05:50

18-Сен-13

Фольклор, Народная и Этническая музыка (lossless) ·· [CZE] (Поп-фолк) Jaromír Nohavica (Яромир Ногавица) - Дискография (21 альбом) - 1989-2013, FLAC (tracks+.cue), lossless Polarnik 69941274316.51 GB 0 0 1379277118

23:31

15-Сен-13

Фольклор, Народная и Этническая музыка (lossless) ·· [CZE] (Фолк) Karel Plíhal, Emil Pospíšil (Karel Plihal, Emil Pospisil) - Karel Plíhal ... Emil Pospíšil - 1988, FLAC (tracks+.cue), lossless Polarnik 254528253243 MB 1 1 1379277107

23:31

15-Сен-13

Rосk | Mеtаl | Аltеrnаtivе, Рunk, Indереndеnt (mр3) ·· (Doom/Death Metal) From Beyond (Cze) - Дискография 2003-2007 (2 LP, 1 Demo) [MP3 (tracks), 320 kbps] Galfimbul 343321699327 MB 0 0 1371048370

17:46

12-Июн-13

Rосk | Mеtаl | Аltеrnаtivе, Рunk, Indереndеnt (mр3) ·· (Black/Death Metal) Avenger (Cze) - Дискография (1997-2012) (4LP, 1 Demo, 1 Live, 1 Compilation) , MP3, tracks, 320 kbps Galfimbul 944867396901 MB 0 0 1361925345

03:35

27-Фев-13

Фольклор, Народная и Этническая музыка ·· [CZE] (World Music) Jiří Pavlica (Jiri Pavlica) - Коллекция 1994-2007 (5 релизов), MP3, 128-320 kbps Galfimbul 752041358717 MB 0 0 1358799360

23:16

21-Янв-13

Фольклор, Народная и Этническая музыка ·· [CZE] (народная песня, нео-фолк) Václavek, Ostřanský, Jelínková (Vaclavek, Ostransky, Jelinkova) - Domácí lékař (Domaci lekar) [1996] [mp3, 192 kbps] Galfimbul 9819588494 MB 0 0 1344595020

13:37

10-Авг-12

Фольклор, Народная и Этническая музыка ·· [CZE] (Поп-фолк) Jaromír Nohavica (Яромир Ногавица) - Tak Mě Tu Máš - 2012, MP3, 192 kbps _N_ 6022247857 MB 0 0 1341663300

15:15

7-Июл-12

Фольклор, Народная и Этническая музыка ·· [CZE] (Поп-фолк) Jaromír Nohavica (Яромир Ногавица) - Дискография (15 альбомов) - 1989-2009, FLAC (tracks+.cue), lossless Galfimbul 48048469754.47 GB 0 0 1340372400

16:40

22-Июн-12

Фольклор, Народная и Этническая музыка ·· [CZE](Нео-фолк) Czaldy-Waldy - Ethno-šansony ze Slovenska a Ukrajiny - 2005, MP3, 192 kbps Galfimbul 6390535261 MB 0 0 1337192160

21:16

16-Май-12

Фольклор, Народная и Этническая музыка ·· [CZE] (Поп-фолк) Neřež - Neřež - 1998, FLAC (tracks+.cue), lossless Umakiro 320091740305 MB 0 0 1335860040

11:14

1-Май-12

Rосk | Mеtаl | Аltеrnаtivе, Рunk, Indереndеnt (mр3) ·· (Progressive Rock / Art-Rock) Czesław Niemen (Czeslaw Niemen) - 41 Potencjometrow Pana Jana - 2007, MP3, 320 kbps Galfimbul 10070566496 MB 0 0 1328954868

13:07

11-Фев-12

Фольклор, Народная и Этническая музыка (mp3) ·· [CZE] (Нео-фолк, Фольклор в современной обработке) Cechomor - Mistecko - 2011, MP3, 256 kbps vbr Galfimbul 10302919098 MB 0 0 1323517269

14:41

10-Дек-11

Фольклор, Народная и Этническая музыка (mp3) ·· [cze] (Folk ensemble) Hradistan - Moravian Outlaw Songs (Zbojne Pisne Moravske) - 2000, FLAC (image+.cue), lossless Mos 205444131196 MB 0 0 1321075259

08:20

12-Ноя-11

Еще никто не оставлял запись к записи скачать торрент [CZE] . Будь первым!

!Обратная связь