Скачать через торрент музыку Ofra Haza - Galbi бесплатно без регистрации torrent

Если у вас наблюдаются проблемы со скриншотами, переходом по ссылками, скачиванием торрентов - проблемы в блокировщике рекламы AdBlock. #хорошегоДня!


Статистика раздачи
Размер:  73 MB   |    Зарегистрирован:  3 года 10 месяцев   |    .torrent скачан:  128 раз   |   
Раздают:  1  
   
Загрузка...
 
Автор Сообщение

Polarnik

avatar Polarnik


Ofra Haza - Galbi

Жанр: Pop
Страна-производитель диска: Germany
Год издания: 1988
Издатель (лейбл): TELDEC
Номер по каталогу: 8.20918
Аудиокодек: FLAC (*.flac)
Тип рипа: tracks+.cue
Битрейт аудио: lossless
Продолжительность: 00:11:42
Источник (релизер): own rip
Наличие сканов в содержимом раздачи: да
Треклист:

1. Ofra Haza - Galbi (The Sehoog Mix) (5:08)
2. Ofra Haza - Galbi (Instrumental) (4:08)
3. Ofra Haza - Love Song (2:26)
Exact Audio Copy V1.0 beta 3 from 29. August 2011

EAC extraction logfile from 22. September 2013, 1:06

Ofra Haza / Galbi

Used drive : TSSTcorpCDDVDW SN-208BB Adapter: 0 ID: 1

Read mode : SecureUtilize accurate stream : YesDefeat audio cache : YesMake use of C2 pointers : No

Read offset correction : 6Overread into Lead-In and Lead-Out : NoFill up missing offset samples with silence : YesDelete leading and trailing silent blocks : NoNull samples used in CRC calculations : YesUsed interface : Native Win32 interface for Win NT & 2000Gap handling : Appended to previous track

Used output format : User Defined EncoderSelected bitrate : 1024 kBit/sQuality : HighAdd ID3 tag : NoCommand line compressor : C:\Program Files (x86)\Exact Audio Copy\Flac\flac.exeAdditional command line options : -8 -V -T "artist=%artist%" -T "title=%title%" -T "album=%albumtitle%" -T "date=%year%" -T "tracknumber=%tracknr%" -T "genre=%genre%" %source%

TOC of the extracted CD

Track | Start | Length | Start sector | End sector --------------------------------------------------------- 1 | 0:00.00 | 5:08.15 | 0 | 23114 2 | 5:08.15 | 4:08.22 | 23115 | 41736 3 | 9:16.37 | 2:26.25 | 41737 | 52711

Track 1

Filename E:\Torrent\Ofra Haza - Galbi (Maxi CD Single)\01 Galbi (The Sehoog Mix).wav

Pre-gap length 0:00:02.00

Peak level 89.5 % Extraction speed 1.8 X Track quality 100.0 % Test CRC 96FA2D4D Copy CRC 96FA2D4D Accurately ripped (confidence 2) [80EF561F] (AR v2) Copy OK

Track 2

Filename E:\Torrent\Ofra Haza - Galbi (Maxi CD Single)\02 Galbi (Instrumental).wav

Pre-gap length 0:00:01.08

Peak level 85.1 % Extraction speed 1.7 X Track quality 99.9 % Test CRC 1DBE3C19 Copy CRC 1DBE3C19 Accurately ripped (confidence 2) [EDE2E96B] (AR v2) Copy OK

Track 3

Filename E:\Torrent\Ofra Haza - Galbi (Maxi CD Single)\03 Love Song.wav

Pre-gap length 0:00:02.15

Peak level 89.1 % Extraction speed 1.9 X Track quality 100.0 % Test CRC 33BB33E5 Copy CRC 33BB33E5 Accurately ripped (confidence 2) [C4ECC064] (AR v2) Copy OK

All tracks accurately ripped

No errors occurred

End of status report

==== Log checksum 3BEA3116C74A63A7CFBF83FAF1E2B3925688075572046FBFA4CF78A556C5F285 ====
REM GENRE PopREM DATE 1988REM DISCID 1802BE03REM COMMENT "ExactAudioCopy v1.0b3"CATALOG 0000000000000PERFORMER "Ofra Haza"TITLE "Galbi "FILE "01 Galbi (The Sehoog Mix).wav" WAVE TRACK 01 AUDIO TITLE "Galbi (The Sehoog Mix)" PERFORMER "Ofra Haza" INDEX 01 00:00:00 TRACK 02 AUDIO TITLE "Galbi (Instrumental)" PERFORMER "Ofra Haza" INDEX 00 05:07:07FILE "02 Galbi (Instrumental).wav" WAVE INDEX 01 00:00:00 TRACK 03 AUDIO TITLE "Love Song" PERFORMER "Ofra Haza" INDEX 00 04:06:07FILE "03 Love Song.wav" WAVE INDEX 01 00:00:00


Трекер:  [ 25-Сен-2013 14:35 ]

  

Скачать .torrent

Размер .torrent файла 12 KB


Размер: 73 MB
Хэш (hash) релиза: 07734b06ebc4be867bebff706b6b5d54f86341f1

Еще никто не оставлял запись к записи скачать торрент Ofra Haza - Galbi . Будь первым!

!Обратная связь