Скачать через торрент Сенран Кагура Девушки Ниндзя бесплатно Аниме Все серии на русском torrent

Если у вас наблюдаются проблемы со скриншотами, переходом по ссылками, скачиванием торрентов - проблемы в блокировщике рекламы AdBlock. #хорошегоДня!


Статистика раздачи
Размер:  9.73 GB   |    Зарегистрирован:  4 года   |    .torrent скачан:  49 раз   |   
Раздают:  1  
   
Загрузка...
 
Автор Сообщение

Polarnik

avatar Polarnik



Год выпуска: 2013
Страна: Япония
Жанр: комедия, этти
Продолжительность: 12 эп. по 24 мин.
Перевод:

русские субтитры от Gerale
Озвучка:

одноголосая (жен.) от Persona99 (GetSmart)
одноголосая (муж.) от Inspector Gadjet (AniDub)
Режиссер: Ватанабэ Такаси
Студия: Artland
Описание:
Знатокам известно, что ниндзюцу не умерло в эпоху Токугава, а ушло в тень, распустив слухи о своей кончине. Теперь ниндзя служат правительству и самым могущественным людям, а готовят их под прикрытием обычных школ – токийская академия Хандзо одна из них. Там по специальной программе под руководством Кирия-сэнсэя учатся пять девушек, которым суждено стать новым поколением синоби: простоватая Асука, манерная Икаруга, раскованная Кацураги, одноглазая Ягю и милашка Хибари. Асука только что прошла очередной экзамен и, чтобы отметить событие, сэнсэй отправляет учениц на вроде бы несложную миссию в торговом районе…

Тут и выяснилось, что девушек-ниндзя в Японии много, и не все они одержимы идеалами добра, справедливости и госслужбы. Неведомые противницы во главе со смуглянкой Хомурой даже не напрягались, а так, слегка проверили умения оппоненток, оставив тех в полном замешательстве. Впрочем, ученицы Хандзо вскоре успокоились, собрались с силами и принялись за дело всерьез. Вот теперь битва закипит не на шутку, а ради чего – какая разница?! Будем болеть за наших, ведь у них у всех как минимум четвертый размер!
© Hollow, World Art
Информационные ссылки: AniDB || World Art || MAL
Качество: BDRip
Энкод: Winter - RG Pantheon
Тип видео: без хардсаба
Формат: mkv
Видео: x264 (Hi10p), 1280x720, ~3300 Kbps, 23.976 fps
Аудио JAP: Vorbis, 48000Hz, ~256 Kbps, 2ch
Аудио RUS 1-2: AC3, 48000Hz, ~192 Kbps, 2ch (внешними файлами)
[b]01. Ninja That Stand Atop Skyscrapers
02. The Legendary Shinobi Appears
03. Moonlight Intruder
04. Seaside Training: Shinobi Island
05. Sneak Attack! Hanzo Academy
06. Interlocking Shinobi Kekkai Barriers
07. Hiking Terror
08. A Shinobi Classroom Retrospective
09. Hebijo Clandestine Girls` Academy
10. Yin and Yang
11. Castle Showdown
12. Super-Secret Ninja Art
Общее
Уникальный идентификатор : 225831809037748256019264591715399140205 (0xA9E59FD4E22AF949A709D4E1A74C836D)
Полное имя : Z:\Anime\720p\Senran Kagura [BD] [720p]\[Winter] Senran Kagura 01 [BDrip 1280x720 x264 Vorbis].mkv
Формат : Matroska
Версия формата : Version 2
Размер файла : 643 Мбайт
Продолжительность : 23 м.
Режим общего битрейта : Переменный
Общий поток : 3793 Кбит/сек
Дата кодирования : UTC 2013-06-15 18:52:12
Программа кодирования : mkvmerge v2.9.8 (''C''est le bon'') built on Aug 13 2009 12:49:06
Библиотека кодирования : libebml v0.7.7 + libmatroska v0.8.1

Видео
Идентификатор : 1
Формат : AVC
Формат/Информация : Advanced Video Codec
Профиль формата : High 10@L4.1
Параметр CABAC формата : Да
Параметр ReFrames формата : 9 кадров
Идентификатор кодека : V_MPEG4/ISO/AVC
Продолжительность : 23 м.
Битрейт : 3461 Кбит/сек
Ширина : 1280 пикселей
Высота : 720 пикселей
Соотношение сторон : 16:9
Режим частоты кадров : Постоянный
Частота кадров : 23,976 кадра/сек
Цветовое пространство : YUV
Субдискретизация насыщенности : 4:2:0
Битовая глубина : 10 бит
Тип развёртки : Прогрессивная
Бит/(Пиксели*Кадры) : 0.157
Размер потока : 586 Мбайт (91%)
Библиотека кодирования : x264 core 125 r2200 999b753
Настройки программы : cabac=1 / ref=9 / deblock=1:-2:-2 / analyse=0x3:0x133 / me=umh / subme=9 / psy=1 / psy_rd=0.90:0.00 / mixed_ref=1 / me_range=24 / chroma_me=1 / trellis=2 / 8x8dct=1 / cqm=0 / deadzone=21,11 / fast_pskip=1 / chroma_qp_offset=-2 / threads=6 / lookahead_threads=1 / sliced_threads=0 / nr=0 / decimate=0 / interlaced=0 / bluray_compat=0 / constrained_intra=0 / bframes=8 / b_pyramid=2 / b_adapt=2 / b_bias=0 / direct=1 / weightb=1 / open_gop=0 / weightp=2 / keyint=250 / keyint_min=23 / scenecut=40 / intra_refresh=0 / rc=crf / mbtree=0 / crf=15.7 / qcomp=0.70 / qpmin=9 / qpmax=40 / qpstep=4 / ip_ratio=1.40 / pb_ratio=1.30 / aq=1:0.90
Default : Нет
Forced : Нет

Аудио
Идентификатор : 2
Формат : Vorbis
Параметр Floor формата : 1
Идентификатор кодека : A_VORBIS
Продолжительность : 23 м.
Вид битрейта : Переменный
Битрейт : 256 Кбит/сек
Каналы : 2 канала
Частота : 48,0 КГц
Метод сжатия : С потерями
Размер потока : 43,4 Мбайт (7%)
Библиотека кодирования : libVorbis (Omnipresent) (20120203 (Omnipresent))
Язык : Japanese
Default : Да
Forced : Нет




Трекер:  [ 23-Сен-2013 10:13 ]

  

Скачать .torrent

Размер .torrent файла 56 KB


Размер: 9.73 GB
Хэш (hash) релиза: 3c1334b6085e665d555a4a1771c23b521f899e3b
Подписка на обновления:

Торренты, похожие на Сенран Кагура Девушки Ниндзя скачать торрент

Форум Название Автор Размер S L Добавлен
Аниме | HD Rips ·· Сенран Кагура / Девушки Ниндзя / Senran Kagura (Ватанабэ Такаси) [TV+Special] [без хардсаба] [12+6 из 12+6] [JAP+SUB] & [12+0 из 12+6] [RUS(ext)] [2013 г., комедия, этти, BDRip] [1080p] Polarnik 2598306122024.2 GB 1 1 1384115839

23:37

10-Ноя-13

Аниме | HD Rips ·· Сенран Кагура / Девушки Ниндзя / Senran Kagura (Ватанабэ Такаси) [TV+Special] [без хардсаба] [12+6 из 12+6] [JAP+SUB] & [12+0 из 12+6] [RUS(ext)] [2013 г., комедия, этти, BDRip] [720p] Polarnik 1095314764310.2 GB 0 0 1382884578

17:36

27-Окт-13

Аниме | HD Rips ·· Сенран Кагура / Девушки Ниндзя / Senran Kagura (Ватанабэ Такаси) [TV+Special] [без хардсаба] [12+5 из 12+6] [JAP+SUB] & [8+0 из 12+6] [RUS(ext)] [2013 г., комедия, этти, BDRip] [1080p] Polarnik 2537613166223.63 GB 0 0 1379883512

23:58

22-Сен-13

Аниме | HD Rips ·· Сенран Кагура / Девушки Ниндзя / Senran Kagura (Ватанабэ Такаси) [TV+Special] [без хардсаба] [8+3 из 12+6] [JAP+SUB] & [8+0 из 12+6] [RUS(ext)] [2013 г., комедия, этти, BDRip] [1080p] Polarnik 1693782489115.77 GB 0 0 1374849181

17:33

26-Июл-13

Аниме | HD Rips ·· Сенран Кагура / Девушки Ниндзя / Senran Kagura (Ватанабэ Такаси) [TV+Special] [без хардсаба] [8+3 из 12+6] [JAP+SUB] & [8+0 из 12+6] [RUS(ext)] [2013 г., комедия, этти, BDRip] [720p] Polarnik 68863048106.41 GB 0 0 1374244569

17:36

19-Июл-13

Аниме | HD Rips ·· Сенран Кагура / Девушки Ниндзя / Senran Kagura (Ватанабэ Такаси) [TV] [4 из 12] [без хардсаба] [RUS(ext), JAP+SUB] [2013 г., комедия, этти, BDRip] [1080p] Polarnik 74641073626.95 GB 0 0 1372473087

05:31

29-Июн-13

Аниме | HD Rips ·· Сенран Кагура / Девушки Ниндзя / Senran Kagura (Ватанабэ Такаси) [TV] [4 из 12] [без хардсаба] [RUS(ext), JAP+SUB] [2013 г., комедия, этти, BDRip] [720p] Polarnik 30205395852.81 GB 0 0 1371373336

12:02

16-Июн-13

Аниме | HD Rips ·· Девушки Ниндзя / Senran Kagura / Сенран Кагура (Ватанабэ Такаси) [TV+Special] [без хардсаба] [12+6 из 12+6] [JAP+SUB] & [12+0 из 12+6] [RUS(ext)] [2013, комедия, этти, BDRemux] [1080p] Galfimbul 8937079652283.23 GB 0 0 1505034227

12:03

10-Сен-17

Аниме | HD Rips ·· Девушки Ниндзя / Senran Kagura / Сенран Кагура [TV] [12 из 12] [Без хардсаба] [JAP, SUB] [2013 г., Приключения, Комедия, Этти, HDTVRip] [720p] Polarnik 45463569404.23 GB 0 0 1364286914

11:35

26-Мар-13

Аниме | Rips ·· Сенран Кагура / Senran Kagura / Девушки Ниндзя [TV] [01- 03 из >12] [Без хардсаба] [RUS(int), JAP, SUB] [2013 г., комедия, этти, HDTVRip] [HWP] Galfimbul 912104152870 MB 0 0 1359188340

11:19

26-Янв-13

Еще никто не оставлял запись к записи скачать торрент Сенран Кагура Девушки Ниндзя . Будь первым!

!Обратная связь