Скачать через торрент Лаборатория любви Love Lab бесплатно Аниме Все серии на русском torrent

Если у вас наблюдаются проблемы со скриншотами, переходом по ссылками, скачиванием торрентов - проблемы в блокировщике рекламы AdBlock. #хорошегоДня!


Статистика раздачи
Размер:  762 MB   |    Зарегистрирован:  4 года   |    .torrent скачан:  6 раз   |   
Раздают:  1  
   
Загрузка...
 
Автор Сообщение

Polarnik

avatar Polarnik



Лаборатория любви / Love Lab
Страна: Япония
Год выпуска: 2013
Жанр: комедия, школа
Продолжительность: 13 эп., 25 мин.
Режиссер: Ота Масахико
Студия: Dogakobo

Озвучка: одноголосая (муж.) Marclail (Anidub)

Описание: Частная женская школа Фудзисаки известна строгими нравами и безупречным поведением воспитанниц. Живым примером является «Принцесса глициний» Нацуо Маки, в 14 лет ставшая президентом школьного Совета – настоящая японская красавица, круглая отличница, работящая, добрая и безукоризненно вежливая. А вот ее ровесница Рико Курахаси совсем другая: веселая и спортивная девчонка с увлечением играет роль местной «бунтарки-хулиганки», заработав почетный титул «Дикий принц». Впрочем, здравого смысла у Рико хватает, и просьбу учителя отнести бумаги в Совет она исполнила тотчас. Вот только президента Маки посланница застала в весьма двусмысленном положении…

В чем же была причина? В любви! В 14 лет уже пора испытать это светлое чувство… конечно, предварительно подготовившись. Этим и пыталась в одиночку заняться Нацуо, но без особого успеха. Тут дело серьезное, требует взвешенного и коллективного подхода, в связи с чем на базе Совета была создана «лаборатория любви», где к Маки и Рико примкнули секретарь Судзу, вице-президент Эно и казначей Саё. Базовая теория давно прописана в аниме и манге, теперь пришла пора групповой работы, непротиворечивых моделей и полевых испытаний. Парней для них лучше брать помоложе – Гон Фрикс с Китового острова это давно доказал! © Hollow, World Art
Качество: BDRip
Энкод: mazillla12
Тип релиза: Без хардсаба
Формат видео: MKV
Видео: x264, 10 bit, 1280x720, 3500 Kbps, 23.976 fps
Аудио:
1. Rus - AC3, 192 Kbps, 48000Hz, 2ch (отдельно)
2. Jap - AC3, 640 Kbps, 48000Hz, 2ch
Субтитры:
1. ASS, русские, внешние (полные +надписи) AniLibria
(перевод: Makentosh, редактор: Rena-chan)
2. ASS, русские, внешние (полные +надписи) Усатый Ня & Дядюшка Хоттабыч
(перевод: Усатый Ня, оформление: Дядюшка Хоттабыч)
01. Their Remarkable Encounter
GeneralFormat : MatroskaFormat version : Version 2File size : 725 MiBDuration : 24mn 29sOverall bit rate : 4 142 KbpsEncoded date : UTC 2013-09-21 01:09:27Writing application : mkvmerge v3.3.0 (''Language'') built on Mar 24 2010 14:59:24Writing library : libebml v0.8.0 + libmatroska v0.9.0

VideoID : 1Format : AVCFormat/Info : Advanced Video CodecFormat profile : High 10@L3.1Format settings, CABAC : YesFormat settings, ReFrames : 4 framesCodec ID : V_MPEG4/ISO/AVCDuration : 24mn 29sBit rate : 3 500 KbpsWidth : 1 280 pixelsHeight : 720 pixelsDisplay aspect ratio : 16:9Frame rate mode : ConstantFrame rate : 23.976 fpsColor space : YUVChroma subsampling : 4:2:0Bit depth : 10 bitsScan type : ProgressiveBits/(Pixel*Frame) : 0.158Stream size : 599 MiB (83%)Writing library : x264 core 129 r2245+729M 1a52e03Encoding settings : cabac=1 / ref=3 / deblock=1:0:0 / analyse=0x3:0x113 / me=hex / subme=7 / psy=1 / fade_compensate=0.00 / psy_rd=1.00:0.00 / mixed_ref=1 / me_range=16 / chroma_me=1 / trellis=1 / 8x8dct=1 / cqm=0 / deadzone=21,11 / fast_pskip=1 / chroma_qp_offset=-2 / threads=12 / lookahead_threads=2 / sliced_threads=0 / nr=0 / decimate=1 / interlaced=0 / bluray_compat=0 / constrained_intra=0 / fgo=0 / bframes=3 / b_pyramid=2 / b_adapt=1 / b_bias=0 / direct=1 / weightb=1 / open_gop=0 / weightp=2 / keyint=240 / keyint_min=23 / scenecut=40 / intra_refresh=0 / rc_lookahead=40 / rc=2pass / mbtree=1 / bitrate=3500 / ratetol=1.0 / qcomp=0.60 / qpmin=0 / qpmax=81 / qpstep=4 / cplxblur=20.0 / qblur=0.5 / ip_ratio=1.40 / aq=1:1.00Default : NoForced : No

AudioID : 2Format : AC-3Format/Info : Audio Coding 3Mode extension : CM (complete main)Format settings, Endianness : BigCodec ID : A_AC3Duration : 24mn 29sBit rate mode : ConstantBit rate : 640 KbpsChannel(s) : 2 channelsChannel positions : Front: L RSampling rate : 48.0 KHzBit depth : 16 bitsCompression mode : LossyStream size : 112 MiB (15%)Language : JapaneseDefault : YesForced : No

Menu00:00:00.000 : :Chapter 0100:02:32.026 : :Chapter 0200:04:01.991 : :Chapter 0300:12:09.979 : :Chapter 0400:22:28.013 : :Chapter 0500:23:58.019 : :Chapter 06


Трекер:  [ 23-Сен-2013 10:16 ]

  

Скачать .torrent

Размер .torrent файла 16 KB


Размер: 762 MB
Хэш (hash) релиза: f2762818abf6ea2d91e13be0a1b21610c1d676b5
Подписка на обновления:

Торренты, похожие на Лаборатория любви Love Lab скачать торрент

Форум Название Автор Размер S L Добавлен
Аниме | HD Rips ·· Лаборатория любви / Love Lab [TV] [без хардсаба] [13 из 13] [JAP+SUB] & [6 из 13] [RUS(ext)] [2013 г., комедия, HDTVRip] [720p] Polarnik 38128107173.55 GB 0 0 1380789833

11:43

3-Окт-13

Аниме | HD Rips ·· Лаборатория любви / Love Lab [TV] [без хардсаба] [12 из 13] [JAP+SUB] & [6 из 13] [RUS(ext)] [2013 г., комедия, HDTVRip] [720p] Polarnik 35790527343.33 GB 0 0 1379883498

23:58

22-Сен-13

Аниме | HD Rips ·· Лаборатория любви / Love Lab (Ота Масахико) [TV] [1 из 13] [без хардсаба] [RUS(ext), JAP+SUB] [2013 г., комедия, школа, BDRip] [1080p] Polarnik 24775318582.31 GB 0 0 1379774916

17:48

21-Сен-13

Аниме | HD Rips ·· Лаборатория любви / Love Lab [TV] [без хардсаба] [11 из 13] [JAP+SUB] & [6 из 13] [RUS(ext)] [2013 г., комедия, HDTVRip] [720p] Polarnik 33359031023.11 GB 0 0 1379191596

23:46

14-Сен-13

Аниме | HD Rips ·· Лаборатория любви / Love Lab [TV] [без хардсаба] [10 из 13] [JAP+SUB] & [6 из 13] [RUS(ext)] [2013 г., комедия, HDTVRip] [720p] Polarnik 30593501542.85 GB 0 0 1378866970

05:36

11-Сен-13

Аниме | HD Rips ·· Лаборатория любви / Love Lab [TV] [без хардсаба] [9 из 13] [JAP+SUB] & [6 из 13] [RUS(ext)] [2013 г., комедия, HDTVRip] [720p] Polarnik 27654938532.58 GB 0 0 1377981836

23:43

31-Авг-13

Аниме | HD Rips ·· Лаборатория любви / Love Lab [TV] [1 из 13] [Без хардсаба] [JAP, SUB] [2013 г., Комедия, романтика, школа, HDTVRip] [720p] Polarnik 330063289315 MB 0 0 1373164685

05:38

7-Июл-13

Еще никто не оставлял запись к записи скачать торрент Лаборатория любви Love Lab . Будь первым!

!Обратная связь