Скачать через торрент музыку Augustus Pablo - Dubbing with the Don - 2001, FLAC бесплатно без регистрации torrent

Если у вас наблюдаются проблемы со скриншотами, переходом по ссылками, скачиванием торрентов - проблемы в блокировщике рекламы AdBlock. #хорошегоДня!


Статистика раздачи
Размер:  278 MB   |    Зарегистрирован:  4 года   |    .torrent скачан:  107 раз   |   
Раздают:  1  
   
Загрузка...
 
Автор Сообщение

Polarnik

avatar Polarnik


♦ Augustus Pablo - Dubbing with the Don ♦

Жанр: Reggae, Dub
Страна-производитель диска: UK
Год издания: 2001
Издатель (лейбл): Jamaican Recordings
Номер по каталогу: JRCD002
Аудиокодек: FLAC (*.flac)
Тип рипа: image+.cue
Битрейт аудио: lossless
Продолжительность: 00:49:39
Источник (релизер): dreadbull
Наличие сканов в содержимом раздачи: да

Треклист:

01. Skank On Dub [03:26]
02. Wayout Rockers [03:11]
03. Pablos Express [02:46]
04. Pablos Happy Feeling [03:14]
05. Soldier Man Dub [03:40]
06. Well Frozen Dub [03:13]
07. Sweet Cassava Dub [03:28]
08. Talking Dub [03:41]
09. Pablos Connection [03:00]
10. Skanking With Pablo [03:32]
11. Pablos Delight [03:37]
12. Death Trap Dub [02:59]
13. Rockers Downtown [03:23]
14. New Train Dub [03:14]
15. Keep Skanking On Dub [03:08]
Exact Audio Copy V1.0 beta 3 from 29. August 2011

EAC extraction logfile from 6. September 2013, 16:15

Augustus Pablo / Dubbing With The Don

Used drive : ASUS DRW-22B2L Adapter: 0 ID: 0

Read mode : SecureUtilize accurate stream : YesDefeat audio cache : YesMake use of C2 pointers : No

Read offset correction : 6Overread into Lead-In and Lead-Out : NoFill up missing offset samples with silence : YesDelete leading and trailing silent blocks : NoNull samples used in CRC calculations : YesUsed interface : Native Win32 interface for Win NT & 2000

Used output format : User Defined EncoderSelected bitrate : 128 kBit/sQuality : HighAdd ID3 tag : YesCommand line compressor : C:\Program Files (x86)\FLAC\flac.exeAdditional command line options : -8 -V -T "ARTIST=%artist%" -T "TITLE=%title%" -T "ALBUM=%albumtitle%" -T "DATE=%year%" -T "TRACKNUMBER=%tracknr%" -T "GENRE=%genre%" -T "PERFORMER=%albuminterpret%" -T "COMPOSER=%composer%" %haslyrics%--tag-from-file=LYRICS="%lyricsfile%"%haslyrics% -T "ALBUMARTIST=%albumartist%" -T "DISCNUMBER=%cdnumber%" -T "TOTALDISCS=%totalcds%" -T "TOTALTRACKS=%numtracks%" -T "COMMENT=%comment%" %source% -o %dest%

TOC of the extracted CD

Track | Start | Length | Start sector | End sector --------------------------------------------------------- 1 | 0:00.00 | 3:26.56 | 0 | 15505 2 | 3:26.56 | 3:11.33 | 15506 | 29863 3 | 6:38.14 | 2:46.42 | 29864 | 42355 4 | 9:24.56 | 3:14.67 | 42356 | 56972 5 | 12:39.48 | 3:40.45 | 56973 | 73517 6 | 16:20.18 | 3:13.34 | 73518 | 88026 7 | 19:33.52 | 3:28.68 | 88027 | 103694 8 | 23:02.45 | 3:41.01 | 103695 | 120270 9 | 26:43.46 | 3:00.38 | 120271 | 133808 10 | 29:44.09 | 3:32.03 | 133809 | 149711 11 | 33:16.12 | 3:37.09 | 149712 | 165995 12 | 36:53.21 | 2:59.74 | 165996 | 179494 13 | 39:53.20 | 3:23.37 | 179495 | 194756 14 | 43:16.57 | 3:14.28 | 194757 | 209334 15 | 46:31.10 | 3:08.19 | 209335 | 223453

Range status and errors

Selected range

Filename G:\Donkey Files\Augustus Pablo - Dubbing with The Don (2001, Jamaican Recordings) [eac-flac-scans] byDrBull\Dubbing With The Don.wav

Peak level 99.9 % Extraction speed 3.0 X Range quality 99.9 % Test CRC 34090077 Copy CRC 34090077 Copy OK

No errors occurred

AccurateRip summary

Track 1 accurately ripped (confidence 2) [D7AFB46B] (AR v1)Track 2 accurately ripped (confidence 2) [C6537153] (AR v1)Track 3 accurately ripped (confidence 2) [FA40E3F5] (AR v1)Track 4 accurately ripped (confidence 2) [23532158] (AR v1)Track 5 accurately ripped (confidence 2) [4D7F71D7] (AR v1)Track 6 accurately ripped (confidence 2) [784EA03B] (AR v1)Track 7 accurately ripped (confidence 2) [87ECCBA6] (AR v1)Track 8 accurately ripped (confidence 2) [2D934FCA] (AR v1)Track 9 accurately ripped (confidence 2) [76B1786F] (AR v1)Track 10 accurately ripped (confidence 2) [63B5C3AF] (AR v1)Track 11 accurately ripped (confidence 2) [7642766E] (AR v1)Track 12 accurately ripped (confidence 2) [7422EEE6] (AR v1)Track 13 accurately ripped (confidence 2) [8595A4AC] (AR v1)Track 14 accurately ripped (confidence 2) [983D9449] (AR v1)Track 15 accurately ripped (confidence 2) [BD08F7F8] (AR v1)

All tracks accurately ripped

End of status report

---- CUETools DB Plugin V2.1.3

[CTDB TOCID: SVI0G_4678.MwLcqEiXn5MzqRQw-] found, Submit result: SVI0G_4678.MwLcqEiXn5MzqRQw- has been confirmed[9ecdb582] (2/2) Accurately ripped
REM GENRE ReggaeREM DISCID E70BA30FREM COMMENT "ExactAudioCopy v1.0b3"PERFORMER "Augustus Pablo"TITLE "Dubbing With The Don"FILE "Dubbing With The Don.flac" WAVE TRACK 01 AUDIO TITLE "Skank On Dub" PERFORMER "Augustus Pablo" FLAGS DCP INDEX 01 00:00:00 TRACK 02 AUDIO TITLE "Wayout Rockers" PERFORMER "Augustus Pablo" FLAGS DCP INDEX 00 03:24:20 INDEX 01 03:26:56 TRACK 03 AUDIO TITLE "Pablos Express" PERFORMER "Augustus Pablo" FLAGS DCP INDEX 00 06:35:64 INDEX 01 06:38:14 TRACK 04 AUDIO TITLE "Pablos Happy Feeling" PERFORMER "Augustus Pablo" FLAGS DCP INDEX 00 09:22:15 INDEX 01 09:24:56 TRACK 05 AUDIO TITLE "Soldier Man Dub" PERFORMER "Augustus Pablo" FLAGS DCP INDEX 00 12:37:55 INDEX 01 12:39:48 TRACK 06 AUDIO TITLE "Well Frozen Dub" PERFORMER "Augustus Pablo" FLAGS DCP INDEX 00 16:18:35 INDEX 01 16:20:18 TRACK 07 AUDIO TITLE "Sweet Cassava Dub" PERFORMER "Augustus Pablo" FLAGS DCP INDEX 00 19:31:59 INDEX 01 19:33:52 TRACK 08 AUDIO TITLE "Talking Dub" PERFORMER "Augustus Pablo" FLAGS DCP INDEX 00 22:59:30 INDEX 01 23:02:45 TRACK 09 AUDIO TITLE "Pablos Connection" PERFORMER "Augustus Pablo" FLAGS DCP INDEX 00 26:41:40 INDEX 01 26:43:46 TRACK 10 AUDIO TITLE "Skanking With Pablo" PERFORMER "Augustus Pablo" FLAGS DCP INDEX 00 29:42:67 INDEX 01 29:44:09 TRACK 11 AUDIO TITLE "Pablos Delight" PERFORMER "Augustus Pablo" FLAGS DCP INDEX 00 33:13:73 INDEX 01 33:16:12 TRACK 12 AUDIO TITLE "Death Trap Dub" PERFORMER "Augustus Pablo" FLAGS DCP INDEX 00 36:51:72 INDEX 01 36:53:21 TRACK 13 AUDIO TITLE "Rockers Downtown" PERFORMER "Augustus Pablo" FLAGS DCP INDEX 00 39:51:13 INDEX 01 39:53:20 TRACK 14 AUDIO TITLE "New Train Dub" PERFORMER "Augustus Pablo" FLAGS DCP INDEX 00 43:14:63 INDEX 01 43:16:57 TRACK 15 AUDIO TITLE "Keep Skanking On Dub" PERFORMER "Augustus Pablo" FLAGS DCP INDEX 00 46:29:73 INDEX 01 46:31:10
Augustus Pablo - melodica, piano, organ, clavinet;
Bass - Aston "Family Man" Barrett, Robbie Shakespeare;
Drums - Carlton "Carlie" Barrett;
Guitar - Earl "China" Smith;
Trumpet - Bobby Ellis;
Tenor Sax - Richard "Dirty Harry" Hall;
Trombone - Vincent "Don D Junior" Gordon.
Rec. at Dynamic Sounds, Randy''s Studio 17 & Channel One Studio, Kingston, Jamaica.


Трекер:  [ 25-Сен-2013 07:47 ]

  

Скачать .torrent

Размер .torrent файла 12 KB


Размер: 278 MB
Хэш (hash) релиза: 2966f37a819f0e016cafb1970af4104638c2a9e7

Еще никто не оставлял запись к записи скачать торрент Augustus Pablo - Dubbing with the Don - 2001, FLAC . Будь первым!

!Обратная связь