Скачать через торрент музыку VA - A Reggae Tribute To The Beatles - 1995, FLAC бесплатно без регистрации torrent

Если у вас наблюдаются проблемы со скриншотами, переходом по ссылками, скачиванием торрентов - проблемы в блокировщике рекламы AdBlock. #хорошегоДня!


Статистика раздачи
Размер:  266 MB   |    Зарегистрирован:  4 года 1 месяц   |    .torrent скачан:  187 раз   |   
Раздают:  1  
   
Загрузка...
 
Автор Сообщение

Polarnik

avatar Polarnik


Various – A Reggae Tribute To The Beatles

Жанр: Reggae
Год издания: 1995
Издатель (лейбл): Emporio
Номер по каталогу: EMPRCD584
Аудиокодек: FLAC (*.flac)
Тип рипа: tracks+.cue
Битрейт аудио: lossless
Продолжительность: 49:45
Rip by goahead
Наличие сканов в содержимом раздачи: да

Треклист:
01. Yesterday (Dandy Livingstone) (3:03)
02. Hey Jude (John Holt) (2:59)
03. Come Together (The Israelites) (3:03)
04. Something (Phyllis Dillon) (3:34)
05. Let It Be (Nicky Thomas) (2:51)
06. Get Back (Anonymously Yours) (3:00)
07. Hey Jude (Joe''s All Stars) (3:09)
08. My Sweet Lord (Keith Lyn, Byron Lee & The Dragonaires) (3:27)
09. World Without Love (Del Davis) (2:24)
10. Give Peace A Chance (The Maytals) (2:57)
11. Lady Madonna (The Crystalites) (2:29)
12. Isn''t It A Pity (Nicky Thomas) (5:23)
13. Don''t Let Me Down (Harry J. All Stars) (3:37)
14. Blackbirds Singing (Roslyn Sweet & The Paragons) (2:35)
15. Eleanor Rigby (B.B. Seaton) (3:05)
16. World Without Love (Johnny Arthey Orchestra) (2:09)
 
Exact Audio Copy V1.0 beta 3 from 29. August 2011

EAC extraction logfile from 15. September 2013, 15:23

Various Artists / A Reggae Tribute to the Beatles

Used drive : HL-DT-STCD-RW GCE-8520B Adapter: 4 ID: 0

Read mode : SecureUtilize accurate stream : YesDefeat audio cache : YesMake use of C2 pointers : No

Read offset correction : 6Overread into Lead-In and Lead-Out : NoFill up missing offset samples with silence : YesDelete leading and trailing silent blocks : NoNull samples used in CRC calculations : YesUsed interface : Native Win32 interface for Win NT & 2000Gap handling : Appended to previous track

Used output format : User Defined EncoderSelected bitrate : 896 kBit/sQuality : HighAdd ID3 tag : NoCommand line compressor : C:\Program Files (x86)\Exact Audio Copy\Flac\flac.exeAdditional command line options : -8 -V -T "ARTIST=%artist%" -T "TITLE=%title%" -T "ALBUM=%albumtitle%" -T "DATE=%year%" -T "TRACKNUMBER=%tracknr%" -T "GENRE=%genre%" -T "PERFORMER=%albuminterpret%" -T "COMPOSER=%composer%" %haslyrics%--tag-from-file=LYRICS="%lyricsfile%"%haslyrics% -T "ALBUMARTIST=%albumartist%" -T "DISCNUMBER=%cdnumber%" -T "TOTALDISCS=%totalcds%" -T "TOTALTRACKS=%numtracks%" -T "COMMENT=%comment%" %source% -o %dest%

TOC of the extracted CD

Track | Start | Length | Start sector | End sector --------------------------------------------------------- 1 | 0:00.32 | 3:02.53 | 32 | 13734 2 | 3:03.10 | 2:59.15 | 13735 | 27174 3 | 6:02.25 | 3:02.55 | 27175 | 40879 4 | 9:05.05 | 3:34.02 | 40880 | 56931 5 | 12:39.07 | 2:51.33 | 56932 | 69789 6 | 15:30.40 | 3:00.20 | 69790 | 83309 7 | 18:30.60 | 3:09.35 | 83310 | 97519 8 | 21:40.20 | 3:26.40 | 97520 | 113009 9 | 25:06.60 | 2:23.42 | 113010 | 123776 10 | 27:30.27 | 2:57.35 | 123777 | 137086 11 | 30:27.62 | 2:28.65 | 137087 | 148251 12 | 32:56.52 | 5:22.50 | 148252 | 172451 13 | 38:19.27 | 3:37.18 | 172452 | 188744 14 | 41:56.45 | 2:35.32 | 188745 | 200401 15 | 44:32.02 | 3:04.50 | 200402 | 214251 16 | 47:36.52 | 2:08.58 | 214252 | 223909

Track 1

Filename D:\HQShare.net\Various Artists - 1995 - A Reggae Tribute to the Beatles [FLAC]\01 - Dandy Livingstone - Yesterday.wav

Pre-gap length 0:00:02.42

Peak level 97.2 % Extraction speed 4.6 X Track quality 100.0 % Test CRC DB2743D2 Copy CRC DB2743D2 Accurately ripped (confidence 3) [ABAF55AF] (AR v1) Copy OK

Track 2

Filename D:\HQShare.net\Various Artists - 1995 - A Reggae Tribute to the Beatles [FLAC]\02 - John Holt - Hey Jude.wav

Pre-gap length 0:00:00.53

Peak level 97.2 % Extraction speed 5.0 X Track quality 100.0 % Test CRC 1F5733F7 Copy CRC 1F5733F7 Accurately ripped (confidence 3) [4387AD08] (AR v1) Copy OK

Track 3

Filename D:\HQShare.net\Various Artists - 1995 - A Reggae Tribute to the Beatles [FLAC]\03 - The Israelites - Come Together.wav

Pre-gap length 0:00:01.66

Peak level 97.2 % Extraction speed 5.3 X Track quality 100.0 % Test CRC 35E4BFF8 Copy CRC 35E4BFF8 Accurately ripped (confidence 3) [F46ADEAD] (AR v1) Copy OK

Track 4

Filename D:\HQShare.net\Various Artists - 1995 - A Reggae Tribute to the Beatles [FLAC]\04 - Phyllis Dillon - Something.wav

Pre-gap length 0:00:01.13

Peak level 97.2 % Extraction speed 5.8 X Track quality 100.0 % Test CRC 13B78C7D Copy CRC 13B78C7D Accurately ripped (confidence 3) [75FB8068] (AR v1) Copy OK

Track 5

Filename D:\HQShare.net\Various Artists - 1995 - A Reggae Tribute to the Beatles [FLAC]\05 - Nicky Thomas - Let It Be.wav

Pre-gap length 0:00:02.33

Peak level 97.2 % Extraction speed 6.0 X Track quality 100.0 % Test CRC FDFB6555 Copy CRC FDFB6555 Accurately ripped (confidence 3) [32AF00BD] (AR v1) Copy OK

Track 6

Filename D:\HQShare.net\Various Artists - 1995 - A Reggae Tribute to the Beatles [FLAC]\06 - Anonymously Yours - Get Back.wav

Pre-gap length 0:00:01.60

Peak level 97.2 % Extraction speed 5.4 X Track quality 99.9 % Test CRC 37789A2B Copy CRC 37789A2B Accurately ripped (confidence 3) [3BE4390B] (AR v1) Copy OK

Track 7

Filename D:\HQShare.net\Various Artists - 1995 - A Reggae Tribute to the Beatles [FLAC]\07 - Joe''s All Stars - Hey Jude.wav

Pre-gap length 0:00:01.13

Peak level 97.2 % Extraction speed 6.6 X Track quality 100.0 % Test CRC 4459D4DA Copy CRC 4459D4DA Accurately ripped (confidence 3) [46E2D1E8] (AR v1) Copy OK

Track 8

Filename D:\HQShare.net\Various Artists - 1995 - A Reggae Tribute to the Beatles [FLAC]\08 - Keith Lyn, Byron Lee & The Dragonaires - My Sweet Lord.wav

Pre-gap length 0:00:02.80

Peak level 97.2 % Extraction speed 7.0 X Track quality 100.0 % Test CRC D47DB77D Copy CRC D47DB77D Accurately ripped (confidence 3) [42DA3BFE] (AR v1) Copy OK

Track 9

Filename D:\HQShare.net\Various Artists - 1995 - A Reggae Tribute to the Beatles [FLAC]\09 - Del Davis - World Without Love.wav

Pre-gap length 0:00:02.64

Peak level 97.2 % Extraction speed 6.8 X Track quality 100.0 % Test CRC 3D6B78EA Copy CRC 3D6B78EA Accurately ripped (confidence 3) [3CB0A7E5] (AR v1) Copy OK

Track 10

Filename D:\HQShare.net\Various Artists - 1995 - A Reggae Tribute to the Beatles [FLAC]\10 - The Maytals - Give Peace a Chance.wav

Pre-gap length 0:00:01.22

Peak level 97.2 % Extraction speed 7.3 X Track quality 100.0 % Test CRC 5BC3909E Copy CRC 5BC3909E Accurately ripped (confidence 3) [9AA69E67] (AR v1) Copy OK

Track 11

Filename D:\HQShare.net\Various Artists - 1995 - A Reggae Tribute to the Beatles [FLAC]\11 - The Crystalites - Lady Madonna.wav

Pre-gap length 0:00:02.93

Peak level 97.2 % Extraction speed 6.2 X Track quality 100.0 % Test CRC 77381B3B Copy CRC 77381B3B Accurately ripped (confidence 3) [8BB24070] (AR v1) Copy OK

Track 12

Filename D:\HQShare.net\Various Artists - 1995 - A Reggae Tribute to the Beatles [FLAC]\12 - Nicky Thomas - Isn''t It a Pity.wav

Pre-gap length 0:00:01.36

Peak level 97.2 % Extraction speed 7.7 X Track quality 99.9 % Test CRC EEFEF28D Copy CRC EEFEF28D Accurately ripped (confidence 3) [B59AA7D5] (AR v1) Copy OK

Track 13

Filename D:\HQShare.net\Various Artists - 1995 - A Reggae Tribute to the Beatles [FLAC]\13 - Harry J. All Stars - Don''t Let Me Down.wav

Pre-gap length 0:00:03.40

Peak level 97.2 % Extraction speed 8.4 X Track quality 100.0 % Test CRC 8F5CC052 Copy CRC 8F5CC052 Accurately ripped (confidence 3) [61428545] (AR v1) Copy OK

Track 14

Filename D:\HQShare.net\Various Artists - 1995 - A Reggae Tribute to the Beatles [FLAC]\14 - Roslyn Sweat & The Paragons - Blackbirds Singing.wav

Pre-gap length 0:00:03.97

Peak level 97.2 % Extraction speed 8.0 X Track quality 100.0 % Test CRC D300672F Copy CRC D300672F Accurately ripped (confidence 3) [9C09EA16] (AR v1) Copy OK

Track 15

Filename D:\HQShare.net\Various Artists - 1995 - A Reggae Tribute to the Beatles [FLAC]\15 - B.B. Seaton - Eleanor Rigby.wav

Pre-gap length 0:00:02.60

Peak level 97.2 % Extraction speed 8.5 X Track quality 100.0 % Test CRC 3F3C1AAC Copy CRC 3F3C1AAC Accurately ripped (confidence 3) [7CC215E2] (AR v1) Copy OK

Track 16

Filename D:\HQShare.net\Various Artists - 1995 - A Reggae Tribute to the Beatles [FLAC]\16 - Johnny Arthey Orchestra - World Without Love.wav

Pre-gap length 0:00:02.82

Peak level 91.0 % Extraction speed 8.1 X Track quality 100.0 % Test CRC AF992139 Copy CRC AF992139 Accurately ripped (confidence 3) [B8EC321A] (AR v1) Copy OK

All tracks accurately ripped

No errors occurred

End of status report

==== Log checksum F6EFAC4B136A1F113126FED003EE6472E5C21360D38FF27CA3E8AE6BBDE33051 ====
REM GENRE ReggaeREM DATE 1995REM DISCID DD0BA910REM COMMENT "ExactAudioCopy v1.0b3"PERFORMER "Various"TITLE "A Reggae Tribute To The Beatles"FILE "01. Yesterday.flac" WAVE TRACK 01 AUDIO TITLE "Yesterday" PERFORMER "Dandy Livingstone" PREGAP 00:00:32 INDEX 01 00:00:00 TRACK 02 AUDIO TITLE "Hey Jude" PERFORMER "John Holt" INDEX 00 03:02:13FILE "02. Hey Jude.flac" WAVE INDEX 01 00:00:00 TRACK 03 AUDIO TITLE "Come Together" PERFORMER "The Israelites" INDEX 00 02:57:40FILE "03. Come Together.flac" WAVE INDEX 01 00:00:00 TRACK 04 AUDIO TITLE "Something" PERFORMER "Phyllis Dillon" INDEX 00 03:01:45FILE "04. Something.flac" WAVE INDEX 01 00:00:00 TRACK 05 AUDIO TITLE "Let It Be" PERFORMER "Nicky Thomas" INDEX 00 03:31:52FILE "05. Let It Be.flac" WAVE INDEX 01 00:00:00 TRACK 06 AUDIO TITLE "Get Back" PERFORMER "Anonymously Yours" INDEX 00 02:49:63FILE "06. Get Back.flac" WAVE INDEX 01 00:00:00 TRACK 07 AUDIO TITLE "Hey Jude" PERFORMER "Joe''s All Stars" INDEX 00 02:59:10FILE "07. Hey Jude.flac" WAVE INDEX 01 00:00:00 TRACK 08 AUDIO TITLE "My Sweet Lord" PERFORMER "Keith Lyn, Byron Lee & The Dragonaires" INDEX 00 03:06:50FILE "08. My Sweet Lord.flac" WAVE INDEX 01 00:00:00 TRACK 09 AUDIO TITLE "World Without Love" PERFORMER "Del Davis" INDEX 00 03:23:67FILE "09. World Without Love.flac" WAVE INDEX 01 00:00:00 TRACK 10 AUDIO TITLE "Give Peace A Chance" PERFORMER "The Maytals" INDEX 00 02:22:25FILE "10. Give Peace A Chance.flac" WAVE INDEX 01 00:00:00 TRACK 11 AUDIO TITLE "Lady Madonna" PERFORMER "The Crystalites" INDEX 00 02:54:40FILE "11. Lady Madonna.flac" WAVE INDEX 01 00:00:00 TRACK 12 AUDIO TITLE "Isn''t It A Pity" PERFORMER "Nicky Thomas" INDEX 00 02:27:38FILE "12. Isn''t It A Pity.flac" WAVE INDEX 01 00:00:00 TRACK 13 AUDIO TITLE "Don''t Let Me Down" PERFORMER "Harry J. All Stars" INDEX 00 05:19:20FILE "13. Don''t Let Me Down.flac" WAVE INDEX 01 00:00:00 TRACK 14 AUDIO TITLE "Blackbirds Singing" PERFORMER "Roslyn Sweet & The Paragons" INDEX 00 03:33:20FILE "14. Blackbirds Singing.flac" WAVE INDEX 01 00:00:00 TRACK 15 AUDIO TITLE "Eleanor Rigby" PERFORMER "B.B. Seaton" INDEX 00 02:32:62FILE "15. Eleanor Rigby.flac" WAVE INDEX 01 00:00:00 TRACK 16 AUDIO TITLE "World Without Love" PERFORMER "Johnny Arthey Orchestra" INDEX 00 03:01:63FILE "16. World Without Love.flac" WAVE INDEX 01 00:00:00


Трекер:  [ 25-Сен-2013 07:49 ]

  

Скачать .torrent

Размер .torrent файла 12 KB


Размер: 266 MB
Хэш (hash) релиза: dfd70fe2c9e79a343fe7a3d8bb71f395a41f29ee

Еще никто не оставлял запись к записи скачать торрент VA - A Reggae Tribute To The Beatles - 1995, FLAC . Будь первым!

!Обратная связь