Скачать порно через торрент Блондинка делает Продолжительный Минет UnionPeer.org бесплатно онлайн HD качество

Скачать новое порно 2015, 2014 новинки через торрент UnionPeer.org

Порно торрент бесплатно ЮнионПир.орг

Если у вас наблюдаются проблемы со скриншотами, переходом по ссылками, скачиванием торрентов - проблемы в блокировщике рекламы AdBlock. #хорошегоДня!


Статистика раздачи
Размер:  331 MB   |    Зарегистрирован:  4 года 2 месяца   |    .torrent скачан:  434 раза   |   
Раздают:  1  
   
Загрузка...
 
Автор Сообщение

Galfimbul

avatar Galfimbul


Блондинка делает Продолжительный Минет
Год производства: 2009 г.
Жанр: Oral
Продолжительность: 21:18

Описание: От минета видимо тащиться, несколько раз чуть не кончила, а после 2-3 мин классики кончила...

Качество видео: CamRip
Формат видео: MP4
: MPEG4 Video 640x480

Format : MPEG-4
Format profile : 3GPP Media Release 4
Codec ID : 3gp4
File size : 331 MiB
Duration : 21mn 18s
Overall bit rate : 2 169 Kbps
Encoded date : UTC 2009-09-07 15:15:33
Tagged date : UTC 2009-09-07 15:15:33

Video
ID : 1
Format : MPEG-4 Visual
Format settings, BVOP : No
Format settings, QPel : No
Format settings, GMC : No warppoints
Format settings, Matrix : Default (H.263)
Codec ID : 20
Duration : 21mn 18s
Bit rate mode : Variable
Bit rate : 2 154 Kbps
Nominal bit rate : 1 843 Kbps
Maximum bit rate : 2 048 Kbps
Width : 640 pixels
Height : 480 pixels
Display aspect ratio : 4/3
Frame rate mode : Variable
Frame rate : 29.549 fps
Minimum frame rate : 10.000 fps
Maximum frame rate : 30.000 fps
Resolution : 24 bits
Colorimetry : 4:2:0
Scan type : Progressive
Bits/(Pixel*Frame) : 0.237
Stream size : 328 MiB (99%)
Encoded date : UTC 2009-09-07 15:15:33
Tagged date : UTC 2009-09-07 15:15:33
ID : 2
Format : AMR
Format/Info : Adaptive Multi-Rate
Format profile : Narrow band
Codec ID : samr
Duration : 21mn 18s
Bit rate mode : Variable
Bit rate : 12.8 Kbps
Channel(s) : 2 channels
Sampling rate : 8 000 Hz
Resolution : 16 bits
Stream size : 1.95 MiB (1%)
Encoded date : UTC 2009-09-07 15:15:34
Tagged date : UTC 2009-09-07 15:15:34


Трекер:  [ 19-Сен-2013 11:05 ]

  

Скачать .torrent

Размер .torrent файла 13 KB


Размер: 331 MB
Хэш (hash) релиза: 5aa078332cc4d0431ebb65b75c12bdf2b67d48a8

bot

Топик был перенесен в форум Видеоролики

Перенес Galfimbul

Хотите добавить комментарий к записи скачать торрент Блондинка делает Продолжительный Минет

!Обратная связь