Скачать порно через торрент Дыши писей глубже) UnionPeer.org бесплатно онлайн HD качество

Скачать новое порно 2015, 2014 новинки через торрент UnionPeer.org

Порно торрент бесплатно ЮнионПир.орг

Если у вас наблюдаются проблемы со скриншотами, переходом по ссылками, скачиванием торрентов - проблемы в блокировщике рекламы AdBlock. #хорошегоДня!


Статистика раздачи
Размер:  575 MB   |    Зарегистрирован:  4 года   |    .torrent скачан:  439 раз   |   
Раздают:  1  
   
Загрузка...
 
Автор Сообщение

Galfimbul

avatar Galfimbul


Дыши писей глубже)

Год производства: 2012 г.
Жанр: Домашнее
Продолжительность: 00:07:14+00:03:01+00:05:56+00:01:54+00:03:36
191.6 Mb + 80.02 Mb + 157.23 Mb + 50.34 Mb + 95.36 Mb

Описание: С девочкой новенькой баловались)
Болтовня в процессе присутствует))
Смотрите...Дрочите...Коментите)))

Доп. информация: Дрочеры идут мимо) у кого есть подобный опыт снимать своё личное пожалста критикуйте)))
Видео: MPEG4 Video (H264) 640x480 30fps [Video]
Аудио: AAC 44100Hz mono 705kbps [Audio]
Complete name : F:\Documents and Settings\Мечтатель\Мои документы\Личное\Юльчика\наСлон\моё личное баловались\SAM_4209.MP4
Format : MPEG-4
Format profile : Sony PSP
Codec ID : MSNV
File size : 192 MiB
Duration : 7mn 14s
Overall bit rate : 3 702 Kbps
Encoded date : UTC 2012-07-28 16:05:56
Tagged date : UTC 2012-07-28 16:05:56

Video
ID : 1
Format : AVC
Format/Info : Advanced Video Codec
Format profile : Main@L3.0
Format settings, CABAC : Yes
Format settings, ReFrames : 2 frames
Format settings, GOP : M=3, N=8
Codec ID : avc1
Codec ID/Info : Advanced Video Coding
Duration : 7mn 14s
Bit rate mode : Variable
Bit rate : 3 568 Kbps
Width : 640 pixels
Height : 480 pixels
Display aspect ratio : 4:3
Frame rate mode : Constant
Frame rate : 30.000 fps
Color space : YUV
Chroma subsampling : 4:2:0
Bit depth : 8 bits
Scan type : Progressive
Bits/(Pixel*Frame) : 0.387
Stream size : 185 MiB (96%)
Language : Japanese
Encoded date : UTC 2012-07-28 16:05:56
Tagged date : UTC 2012-07-28 16:05:56

Audio
ID : 2
Format : AAC
Format/Info : Advanced Audio Codec
Format profile : LC
Codec ID : 40
Duration : 7mn 14s
Bit rate mode : Constant
Bit rate : 128 Kbps
Channel(s) : 1 channel
Channel positions : Front: C
Sampling rate : 44.1 KHz
Compression mode : Lossy
Delay relative to video : -11ms
Stream size : 6.62 MiB (3%)
Language : Japanese
Encoded date : UTC 2012-07-28 16:05:56
Tagged date : UTC 2012-07-28 16:05:56


Трекер:  [ 21-Сен-2013 13:30 ]

  

Скачать .torrent

Размер .torrent файла 12 KB


Размер: 575 MB
Хэш (hash) релиза: 1f040c898b5c2b83545881b36fb46c17e5a3ef3a

bot

Топик был перенесен в форум Видеоролики

Перенес Galfimbul

Хотите добавить комментарий к записи скачать торрент Дыши писей глубже)

!Обратная связь