Скачать порно через торрент Решили выложить наше домашнее видео UnionPeer.org бесплатно онлайн HD качество

Скачать новое порно 2015, 2014 новинки через торрент UnionPeer.org

Порно торрент бесплатно ЮнионПир.орг

Если у вас наблюдаются проблемы со скриншотами, переходом по ссылками, скачиванием торрентов - проблемы в блокировщике рекламы AdBlock. #хорошегоДня!


Статистика раздачи
Размер:  54 MB   |    Зарегистрирован:  3 года 10 месяцев   |    .torrent скачан:  384 раза   |   
Раздают:  1  
   
Загрузка...
 
Автор Сообщение

Galfimbul

avatar Galfimbul


Решили выложить наше домашнее видео

Год производства: 2010 г.
Жанр: Home videos,Anal, All Sex
Продолжительность: 00:00:54

Описание: Решили выложить наше домашнее видео
Video
ID : 1
Format : M-JPEG
Codec ID : jpeg
Duration : 55s 0ms
Bit rate mode : Variable
Bit rate : 8 199 Kbps
Width : 640 pixels
Height : 480 pixels
Display aspect ratio : 4:3
Frame rate mode : Constant
Frame rate : 30.000 fps
Bits/(Pixel*Frame) : 0.890
Stream size : 53.8 MiB (99%)
Language : English
Encoded date : UTC 2010-10-08 11:03:31
Tagged date : UTC 2010-10-08 11:03:31

Audio
ID : 2
Format : PCM
Format settings, Endianness : Little
Format settings, Sign : Unsigned
Codec ID : raw
Duration : 55s 0ms
Bit rate mode : Constant
Bit rate : 64.0 Kbps
Channel(s) : 1 channel
Sampling rate : 8 000 Hz
Resolution : 8 bits
Stream size : 430 KiB (1%)
Language : English
Encoded date : UTC 2010-10-08 11:03:31
Tagged date : UTC 2010-10-08 11:03:31
Формат видео: MOV

Трекер:  [ 26-Сен-2013 17:15 ]

  

Скачать .torrent

Размер .torrent файла 17 KB


Размер: 54 MB
Хэш (hash) релиза: cd3210312646768a188f452552227bf43de2dd18

bot

Топик был перенесен в форум Видеоролики

Перенес Galfimbul

Хотите добавить комментарий к записи скачать торрент Решили выложить наше домашнее видео

!Обратная связь