Скачать порно через торрент Девочка на миллион долларов: пихается, как кошка и кончает, как из пулемета UnionPeer.org бесплатно онлайн HD качество

Скачать новое порно 2015, 2014 новинки через торрент UnionPeer.org

Порно торрент бесплатно ЮнионПир.орг

Если у вас наблюдаются проблемы со скриншотами, переходом по ссылками, скачиванием торрентов - проблемы в блокировщике рекламы AdBlock. #хорошегоДня!


Статистика раздачи
Размер:  66 MB   |    Зарегистрирован:  4 года 1 месяц   |    .torrent скачан:  976 раз   |   
Раздают:  1  
   
Загрузка...
 
Автор Сообщение

Galfimbul

avatar Galfimbul


Девочка на миллион долларов: пихается, как кошка и кончает, как из пулемета

Год производства: 2010 г.
Жанр: amateur, homemade, oral, all sex, squirt, orgasm, wives, mature

Описание: Боже, как она кончает!!!!!! Кричит, кончает и заливает все вокруг.

Качество видео: CamRip
Формат видео: MPEG
Видео кодек: MPEG, WMV
Аудио кодек: AC3, WMV
Общее
Полное имя : 297653.mpg
Формат : MPEG-PS
Размер файла : 61,8 Мбайт
Продолжительность : 3 м. 20 с.
Общий поток : 2593 Кбит/сек

Видео
Идентификатор : 224 (0xE0)
Формат : MPEG Video
Версия формата : Version 2
Профиль формата : Main@Main
Параметр BVOP формата : Нет
Параметр матрицы формата : По умолчанию
Параметры GOP формата : M=1, N=12
Продолжительность : 3 м. 20 с.
Вид битрейта : Переменный
Битрейт : 2382 Кбит/сек
Номинальный битрейт : 9000 Кбит/сек
Ширина : 720 пикс.
Высота : 480 пикс.
Соотношение сторон : 3:2
Частота кадров : 29,970 кадр/сек
Стандарт вещания : NTSC
Цветовое пространство : YUV
Подвыборка цветности : 4:2:0
Битовая глубина : 8 бит
Тип развёртки : Прогрессивная
Метод сжатия : С потерями
Бит/(Пиксели*Кадры) : 0.230
Размер потока : 56,8 Мбайт (92%)

Аудио
Идентификатор : 128 (0x80)
Формат : AC-3
Формат/Информация : Audio Coding 3
Расширение режима : CM (complete main)
Продолжительность : 3 м. 19 с.
Вид битрейта : Постоянный
Битрейт : 160 Кбит/сек
Канал(ы) : 1 канал
Расположение каналов : Front: C
Частота : 48,0 КГц
Битовая глубина : 16 бит
Метод сжатия : С потерями
Размер потока : 3,81 Мбайт (6%)
Общее
Полное имя : 297654.wmv
Формат : Windows Media
Размер файла : 4,37 Мбайт
Продолжительность : 1 м. 45 с.
Режим общего битрейта : Постоянный
Общий поток : 347 Кбит/сек
Максимальный общий битрейт : 358 Кбит/сек
Дата кодирования : UTC 2006-12-09 13:43:06.765
Application : Windows Movie Maker 2.0.3312.0

Видео
Идентификатор : 2
Формат : VC-1
Профиль формата : MP@LL
Идентификатор кодека : WMV3
Идентификатор кодека/Информация : Windows Media Video 9
Идентификатор кодека/Подсказка : WMV3
Описание кодека : Windows Media Video 9
Продолжительность : 1 м. 45 с.
Вид битрейта : Постоянный
Битрейт : 308 Кбит/сек
Ширина : 320 пикс.
Высота : 240 пикс.
Соотношение сторон : 4:3
Частота кадров : 25,000 кадр/сек
Битовая глубина : 8 бит
Тип развёртки : Прогрессивная
Метод сжатия : С потерями
Бит/(Пиксели*Кадры) : 0.160
Размер потока : 3,88 Мбайт (89%)

Аудио
Идентификатор : 1
Формат : WMA
Версия формата : Version 2
Идентификатор кодека : 161
Идентификатор кодека/Информация : Windows Media Audio
Описание кодека : Windows Media Audio 9 - 32 kbps, 32 kHz, stereo (A/V) 1-pass CBR
Продолжительность : 1 м. 45 с.
Вид битрейта : Постоянный
Битрейт : 32,0 Кбит/сек
Канал(ы) : 2 канала(ов)
Частота : 32,0 КГц
Битовая глубина : 16 бит
Размер потока : 413 Кбайт (9%)


Трекер:  [ 28-Сен-2013 13:45 ]

  

Скачать .torrent

Размер .torrent файла 11 KB


Размер: 66 MB
Хэш (hash) релиза: 4e6419354f38b737fe7e564b54c0552814d0a5e1

bot

Топик был перенесен в форум Видеоролики

Перенес Galfimbul

Хотите добавить комментарий к записи скачать торрент Девочка на миллион долларов: пихается, как кошка и кончает, как из пулемета

!Обратная связь