Скачать порно через торрент Красотка Елена UnionPeer.org бесплатно онлайн HD качество

Скачать новое порно 2015, 2014 новинки через торрент UnionPeer.org

Порно торрент бесплатно ЮнионПир.орг

Если у вас наблюдаются проблемы со скриншотами, переходом по ссылками, скачиванием торрентов - проблемы в блокировщике рекламы AdBlock. #хорошегоДня!


Статистика раздачи
Размер:  209 MB   |    Зарегистрирован:  4 года 1 месяц   |    .torrent скачан:  187 раз   |   
Раздают:  1  
   
Загрузка...
 
Автор Сообщение

Galfimbul

avatar Galfimbul


Красотка Елена

Год производства: 2012 г.

Жанр: Amateur
Продолжительность: 01:43:12

Описание: Девушка Лена,позирует и ласкает себя перед вебкой.

Формат видео: MP4
Видео кодек: DivX
Аудио кодек: AAC
Видео: MPEG4 Video (H264) 640x480 [Video]
Аудио: AAC 44100Hz mono 705kbps [Audio]
General
Format : MPEG-4
Format profile : Base Media / Version 2
Codec ID : mp42
File size : 209 MiB
Duration : 1h 43mn
Overall bit rate mode : Variable
Overall bit rate : 284 Kbps
Encoded date : UTC 2012-08-12 15:02:30
Tagged date : UTC 2012-08-12 15:02:34
©TIM : 00:00:00:00
©TSC : 25
©TSZ : 1

Video
ID : 1
Format : AVC
Format/Info : Advanced Video Codec
Format profile : High@L5.1
Format settings, CABAC : Yes
Format settings, ReFrames : 3 frames
Codec ID : avc1
Codec ID/Info : Advanced Video Coding
Duration : 1h 43mn
Bit rate mode : Constant
Bit rate : 192 Kbps
Width : 640 pixels
Height : 480 pixels
Display aspect ratio : 4:3
Frame rate mode : Variable
Frame rate : 25.000 fps
Minimum frame rate : 25.000 fps
Maximum frame rate : 25.025 fps
Standard : PAL
Color space : YUV
Chroma subsampling : 4:2:0
Bit depth : 8 bits
Scan type : Progressive
Bits/(Pixel*Frame) : 0.025
Stream size : 137 MiB (66%)
Language : English
Encoded date : UTC 2012-08-12 15:02:30
Tagged date : UTC 2012-08-12 15:02:30
mdhd_Duration : 6192400
Color primaries : BT.470-6 System B, BT.470-6 System G, BT.601-6 625, BT.1358 625, BT.1700 625 PAL, BT.1700 625 SECAM
Transfer characteristics : BT.470-6 System B, BT.470-6 System G
Matrix coefficients : BT.470-6 System B, BT.470-6 System G, BT.601-6 625, BT.1358 625, BT.1700 625 PAL, BT.1700 625 SECAM, IEC 61966-2-4 601

Audio
ID : 2
Format : AAC
Format/Info : Advanced Audio Codec
Format profile : LC
Codec ID : 40
Duration : 1h 43mn
Source duration : 1h 43mn
Bit rate mode : Variable
Bit rate : 93.6 Kbps
Maximum bit rate : 144 Kbps
Channel(s) : 1 channel
Channel positions : Front: C
Sampling rate : 44.1 KHz
Compression mode : Lossy
Stream size : 69.1 MiB (33%)
Source stream size : 69.1 MiB (33%)
Language : English
Encoded date : UTC 2012-08-12 15:02:30
Tagged date : UTC 2012-08-12 15:02:30
mdhd_Duration : 6192437


Трекер:  [ 13-Окт-2013 10:45 ]

  

Скачать .torrent

Размер .torrent файла 17 KB


Размер: 209 MB
Хэш (hash) релиза: 9344cb22ec88a7070da558457e0feb87e861857f

bot

Топик был перенесен в форум Видеоролики

Перенес Galfimbul

Хотите добавить комментарий к записи скачать торрент Красотка Елена

!Обратная связь