Скачать порно через торрент Лана Часть 2 UnionPeer.org бесплатно онлайн HD качество

Скачать новое порно 2015, 2014 новинки через торрент UnionPeer.org

Порно торрент бесплатно ЮнионПир.орг

Если у вас наблюдаются проблемы со скриншотами, переходом по ссылками, скачиванием торрентов - проблемы в блокировщике рекламы AdBlock. #хорошегоДня!


Статистика раздачи
Размер:  372 MB   |    Зарегистрирован:  3 года 9 месяцев   |    .torrent скачан:  174 раза   |   
Раздают:  1  
   
Загрузка...
 
Автор Сообщение

Galfimbul

avatar Galfimbul


Лана Часть 2
Год производства: 2009 г.
Жанр: Oral
Продолжительность: ~00:28

Описание: Несколько роликов с Ланой при свете

Доп. информация:
Video
ID : 1
Format : MPEG-4 Visual
Format profile : Simple@L4a
Format settings, BVOP : No
Format settings, QPel : No
Format settings, GMC : No warppoints
Format settings, Matrix : Default (H.263)
Codec ID : 20
Duration : 12mn 29s
Bit rate mode : Variable
Bit rate : 1 956 Kbps
Nominal bit rate : 1 843 Kbps
Maximum bit rate : 2 048 Kbps
Width : 640 pixels
Height : 480 pixels
Display aspect ratio : 4:3
Frame rate mode : Variable
Frame rate : 29.639 fps
Minimum frame rate : 10.000 fps
Maximum frame rate : 30.000 fps
Resolution : 24 bits
Colorimetry : 4:2:0
Scan type : Progressive
Bits/(Pixel*Frame) : 0.215
Stream size : 175 MiB (99%)
Encoded date : UTC 2009-09-10 15:26:02
Tagged date : UTC 2009-09-10 15:26:02

Audio
ID : 2
Format : AMR
Format/Info : Adaptive Multi-Rate
Format profile : Narrow band
Codec ID : samr
Duration : 12mn 29s
Bit rate mode : Variable
Bit rate : 12.8 Kbps
Channel(s) : 1 channel
Sampling rate : 8 000 Hz
Resolution : 16 bits
Stream size : 1.14 MiB (1%)
Writing library : S60
Encoded date : UTC 2009-09-10 15:26:04
Tagged date : UTC 2009-09-10 15:26:04
Качество видео: CamRip
Формат видео: MP4

Трекер:  [ 31-Окт-2013 00:56 ]

  

Скачать .torrent

Размер .torrent файла 15 KB


Размер: 372 MB
Хэш (hash) релиза: d41e5c50fa427f4c89356330c2c299a7fe97fdd6

bot

Топик был перенесен в форум Видеоролики

Перенес Galfimbul

Хотите добавить комментарий к записи скачать торрент Лана Часть 2

!Обратная связь