Скачать порно через торрент Минет от полосатой кофточки UnionPeer.org бесплатно онлайн HD качество

Скачать новое порно 2015, 2014 новинки через торрент UnionPeer.org

Порно торрент бесплатно ЮнионПир.орг

Если у вас наблюдаются проблемы со скриншотами, переходом по ссылками, скачиванием торрентов - проблемы в блокировщике рекламы AdBlock. #хорошегоДня!


Статистика раздачи
Размер:  534 MB   |    Зарегистрирован:  3 года 8 месяцев   |    .torrent скачан:  141 раз   |   
Раздают:  1  
   
Загрузка...
 
Автор Сообщение

Galfimbul

avatar Galfimbul


Минет от полосатой кофточки

Год производства: 2011Страна:
Жанр: Amateur, Home, BlowJob, Brunettes, POV....
Продолжительность: 1 - 1 м. 56 с., 2 - 23 с., 3 - 51 с., 4 - 18 с., 5 - 1 м. 25 с.
Язык: Русский
Режиссер: Сам себя снимаю
Студия: Помещение
В ролях: Парень и девушкаОписание: Минет
Качество видео: CamRip
Общее
Полное имя : D:\Торренты\Minet\1.AVI
Формат : AVI
Формат/Информация : Audio Video Interleave
Размер файла : 210 Мбайт
Продолжительность : 1 м. 56 с.
Общий поток : 15,2 Мбит/сек

Видео
Идентификатор : 0
Формат : JPEG
Идентификатор кодека : MJPG
Продолжительность : 1 м. 56 с.
Битрейт : 14,8 Мбит/сек
Ширина : 640 пикселей
Высота : 480 пикселей
Соотношение сторон : 4:3
Частота кадров : 30,000 кадров/сек
Цветовое пространство : YUV
Субдискретизация насыщенности : 4:2:2
Битовая глубина : 8 бит
Тип развёртки : Прогрессивная
Метод сжатия : С потерями
Бит/(Пиксели*Кадры) : 1.604
Размер потока : 205 Мбайт (98%)

Аудио
Идентификатор : 1
Формат : PCM
Параметр Endianness формата : Little
Параметр Sign формата : Signed
Идентификатор кодека : 1
Продолжительность : 1 м. 56 с.
Вид битрейта : Постоянный
Битрейт : 352,8 Кбит/сек
Каналы : 1 канал
Частота : 22,05 КГц
Битовая глубина : 16 бит
Размер потока : 4,90 Мбайт (2%)
Продолжительность промежутка : 33 мс. (1,00 видеокадр)
Общее
Полное имя : D:\Торренты\Minet\2.AVI
Формат : AVI
Формат/Информация : Audio Video Interleave
Размер файла : 42,6 Мбайт
Продолжительность : 23 с.
Общий поток : 15,2 Мбит/сек

Видео
Идентификатор : 0
Формат : JPEG
Идентификатор кодека : MJPG
Продолжительность : 23 с.
Битрейт : 14,8 Мбит/сек
Ширина : 640 пикселей
Высота : 480 пикселей
Соотношение сторон : 4:3
Частота кадров : 30,000 кадров/сек
Цветовое пространство : YUV
Субдискретизация насыщенности : 4:2:2
Битовая глубина : 8 бит
Тип развёртки : Прогрессивная
Метод сжатия : С потерями
Бит/(Пиксели*Кадры) : 1.605
Размер потока : 41,5 Мбайт (98%)

Аудио
Идентификатор : 1
Формат : PCM
Параметр Endianness формата : Little
Параметр Sign формата : Signed
Идентификатор кодека : 1
Продолжительность : 23 с.
Вид битрейта : Постоянный
Битрейт : 352,8 Кбит/сек
Каналы : 1 канал
Частота : 22,05 КГц
Битовая глубина : 16 бит
Размер потока : 1014 Кбайт (2%)
Продолжительность промежутка : 33 мс. (1,00 видеокадр)
Общее
Полное имя : D:\Торренты\Minet\3.AVI
Формат : AVI
Формат/Информация : Audio Video Interleave
Размер файла : 92,1 Мбайт
Продолжительность : 51 с.
Общий поток : 15,2 Мбит/сек

Видео
Идентификатор : 0
Формат : JPEG
Идентификатор кодека : MJPG
Продолжительность : 51 с.
Битрейт : 14,8 Мбит/сек
Ширина : 640 пикселей
Высота : 480 пикселей
Соотношение сторон : 4:3
Частота кадров : 30,000 кадров/сек
Цветовое пространство : YUV
Субдискретизация насыщенности : 4:2:2
Битовая глубина : 8 бит
Тип развёртки : Прогрессивная
Метод сжатия : С потерями
Бит/(Пиксели*Кадры) : 1.605
Размер потока : 89,9 Мбайт (98%)

Аудио
Идентификатор : 1
Формат : PCM
Параметр Endianness формата : Little
Параметр Sign формата : Signed
Идентификатор кодека : 1
Продолжительность : 50 с.
Вид битрейта : Постоянный
Битрейт : 352,8 Кбит/сек
Каналы : 1 канал
Частота : 22,05 КГц
Битовая глубина : 16 бит
Размер потока : 2,14 Мбайт (2%)
Продолжительность промежутка : 33 мс. (1,00 видеокадр)
Общее
Полное имя : D:\Торренты\Minet\4.AVI
Формат : AVI
Формат/Информация : Audio Video Interleave
Размер файла : 33,9 Мбайт
Продолжительность : 18 с.
Общий поток : 15,2 Мбит/сек

Видео
Идентификатор : 0
Формат : JPEG
Идентификатор кодека : MJPG
Продолжительность : 18 с.
Битрейт : 14,8 Мбит/сек
Ширина : 640 пикселей
Высота : 480 пикселей
Соотношение сторон : 4:3
Частота кадров : 30,000 кадров/сек
Цветовое пространство : YUV
Субдискретизация насыщенности : 4:2:2
Битовая глубина : 8 бит
Тип развёртки : Прогрессивная
Метод сжатия : С потерями
Бит/(Пиксели*Кадры) : 1.607
Размер потока : 33,1 Мбайт (98%)

Аудио
Идентификатор : 1
Формат : PCM
Параметр Endianness формата : Little
Параметр Sign формата : Signed
Идентификатор кодека : 1
Продолжительность : 18 с.
Вид битрейта : Постоянный
Битрейт : 352,8 Кбит/сек
Каналы : 1 канал
Частота : 22,05 КГц
Битовая глубина : 16 бит
Размер потока : 807 Кбайт (2%)
Продолжительность промежутка : 33 мс. (1,00 видеокадр)
Общее
Полное имя : D:\Торренты\Minet\5.AVI
Формат : AVI
Формат/Информация : Audio Video Interleave
Размер файла : 155 Мбайт
Продолжительность : 1 м. 25 с.
Общий поток : 15,2 Мбит/сек

Видео
Идентификатор : 0
Формат : JPEG
Идентификатор кодека : MJPG
Продолжительность : 1 м. 25 с.
Битрейт : 14,9 Мбит/сек
Ширина : 640 пикселей
Высота : 480 пикселей
Соотношение сторон : 4:3
Частота кадров : 30,000 кадров/сек
Цветовое пространство : YUV
Субдискретизация насыщенности : 4:2:2
Битовая глубина : 8 бит
Тип развёртки : Прогрессивная
Метод сжатия : С потерями
Бит/(Пиксели*Кадры) : 1.612
Размер потока : 152 Мбайт (98%)

Аудио
Идентификатор : 1
Формат : PCM
Параметр Endianness формата : Little
Параметр Sign формата : Signed
Идентификатор кодека : 1
Продолжительность : 1 м. 25 с.
Вид битрейта : Постоянный
Битрейт : 352,8 Кбит/сек
Каналы : 1 канал
Частота : 22,05 КГц
Битовая глубина : 16 бит
Размер потока : 3,60 Мбайт (2%)
Продолжительность промежутка : 33 мс. (1,00 видеокадр)


Трекер:  [ 01-Дек-2013 15:34 ]

  

Скачать .torrent

Размер .torrent файла 11 KB


Размер: 534 MB
Хэш (hash) релиза: bb2a0ed61f194ce7eddeee1730d946a18657df2c

bot

Топик был перенесен в форум Видеоролики

Перенес Galfimbul

Хотите добавить комментарий к записи скачать торрент Минет от полосатой кофточки

!Обратная связь