Скачать порно через торрент Зрелый мужик с молоденькой подружкой UnionPeer.org бесплатно онлайн HD качество

Скачать новое порно 2015, 2014 новинки через торрент UnionPeer.org

Порно торрент бесплатно ЮнионПир.орг

Если у вас наблюдаются проблемы со скриншотами, переходом по ссылками, скачиванием торрентов - проблемы в блокировщике рекламы AdBlock. #хорошегоДня!


Статистика раздачи
Размер:  301 MB   |    Зарегистрирован:  3 года 8 месяцев   |    .torrent скачан:  257 раз   |   
Раздают:  1  
   
Загрузка...
 
Автор Сообщение

Galfimbul

avatar Galfimbul


Зрелый мужик с молоденькой подружкой

Год производства: НеизвестенСтрана:
Жанр: Amateur, Home, BlowJob, Brunettes, Teen
Продолжительность: 35mn 57s
Язык: Русский
Режиссер: Мужиг
Студия: Дом
В ролях: Девочка и мужигОписание: : Мужичек имеет в разных позах симпатичную молоденькую девчонку
General
Complete name : D:\Документы\homevideolipeck.wmv
Format : Windows Media
File size : 301 MiB
Duration : 35mn 57s
Overall bit rate mode : Constant
Overall bit rate : 1 172 Kbps
Maximum Overall bit rate : 1 580 Kbps
Movie name : Мой фильм
Encoded date : UTC 2012-01-10 08:04:00.958
Copyright : ©

Video
ID : 2
Format : VC-1
Format profile : MP@ML
Codec ID : WMV3
Codec ID/Info : Windows Media Video 9
Codec ID/Hint : WMV3
Description of the codec : Windows Media Video 9
Duration : 35mn 57s
Bit rate mode : Constant
Bit rate : 1 500 Kbps
Width : 480 pixels
Height : 360 pixels
Display aspect ratio : 4:3
Frame rate : 25.000 fps
Bit depth : 8 bits
Scan type : Progressive
Compression mode : Lossy
Bits/(Pixel*Frame) : 0.347
Stream size : 386 MiB
Language : English (US)

Audio
ID : 1
Format : WMA
Format version : Version 2
Codec ID : 161
Codec ID/Info : Windows Media Audio
Description of the codec : Windows Media Audio 9.2 - 64 kbps, 44 kHz, stereo (A/V) 1-pass CBR
Duration : 35mn 57s
Bit rate mode : Constant
Bit rate : 64.0 Kbps
Channel(s) : 2 channels
Sampling rate : 44.1 KHz
Bit depth : 16 bits
Stream size : 16.5 MiB (5%)
Language : English (US)
Как я не бился (разными прогами пытался) а скринлист создать так и не получилось


Трекер:  [ 01-Дек-2013 15:34 ]

  

Скачать .torrent

Размер .torrent файла 12 KB


Размер: 301 MB
Хэш (hash) релиза: e8fdb525dc76031b3209afdf36543056a858b5fb

bot

Топик был перенесен в форум Видеоролики

Перенес Galfimbul

Хотите добавить комментарий к записи скачать торрент Зрелый мужик с молоденькой подружкой

!Обратная связь