Скачать порно через торрент Девушку трахают крупным планом UnionPeer.org бесплатно онлайн HD качество

Скачать новое порно 2015, 2014 новинки через торрент UnionPeer.org

Порно торрент бесплатно ЮнионПир.орг

Если у вас наблюдаются проблемы со скриншотами, переходом по ссылками, скачиванием торрентов - проблемы в блокировщике рекламы AdBlock. #хорошегоДня!


Статистика раздачи
Размер:  72 MB   |    Зарегистрирован:  3 года 10 месяцев   |    .torrent скачан:  1217 раз   |   
Раздают:  1  
   
Загрузка...
 
Автор Сообщение

Galfimbul

avatar Galfimbul


Девушку трахают крупным планом

Год производства: 2010 г.
Жанр: Amateur Home, All Sex, Teens, pov
Продолжительность: 4:51

Описание: девушку трахают крупным планом

Качество видео: CamRip
Формат видео: WMV
Видео кодек: Windows Media
Аудио кодек: WMA
General

Format : Windows Media
File size : 71.6 MiB
Duration : 4mn 51s
Overall bit rate mode : Constant
Overall bit rate : 2 062 Kbps
Maximum Overall bit rate : 2 079 Kbps
Encoded date : UTC 2006-02-10 13:09:42.921
Application : Windows Movie Maker 2.1.4026.0

Video
ID : 2
Format : VC-1
Format profile : MP@ML
Codec ID : WMV3
Codec ID/Info : Windows Media Video 9
Codec ID/Hint : WMV3
Description of the codec : Windows Media Video 9 - Professional
Duration : 4mn 51s
Bit rate mode : Constant
Bit rate : 1 900 Kbps
Width : 720 pixels
Height : 576 pixels
Display aspect ratio : 5:4
Frame rate : 25.000 fps
Standard : PAL
Resolution : 8 bits
Scan type : Progressive
Bits/(Pixel*Frame) : 0.183
Stream size : 66.0 MiB (92%)
Language : German

Audio
ID : 1
Format : WMA
Format version : Version 2
Codec ID : 161
Codec ID/Info : Windows Media Audio
Description of the codec : Windows Media Audio 9 - 160 kbps, 44 kHz, stereo (A/V) 1-pass CBR
Duration : 4mn 51s
Bit rate mode : Constant
Bit rate : 160 Kbps
Channel(s) : 2 channels
Sampling rate : 44.1 KHz
Resolution : 16 bits
Stream size : 5.56 MiB (8%)
Language : German


Трекер:  [ 01-Дек-2013 15:36 ]

  

Скачать .torrent

Размер .torrent файла 11 KB


Размер: 72 MB
Хэш (hash) релиза: c60f8e40b1e1f02f9755ce236298e2485cca3ede

Торренты, похожие на Девушку трахают крупным планом скачать торрент

Форум Название Автор Размер S L Добавлен
Русское любительское видео ·· Трах девушки в белых трусиках крупным планом [2012 г., All sex, home,anal, 720p, CamRip] Galfimbul 108350300103 MB 0 0 1364502797

23:33

28-Мар-13

bot

Топик был перенесен в форум Видеоролики

Перенес Galfimbul

Хотите добавить комментарий к записи скачать торрент Девушку трахают крупным планом

!Обратная связь