Скачать через торрент музыку Burning Spear - Living Dub, Vol. 4 - 1999, FLAC бесплатно без регистрации torrent

Если у вас наблюдаются проблемы со скриншотами, переходом по ссылками, скачиванием торрентов - проблемы в блокировщике рекламы AdBlock. #хорошегоДня!


Статистика раздачи
Размер:  382 MB   |    Зарегистрирован:  4 года   |    .torrent скачан:  112 раз   |   
Раздают:  1  
   
Загрузка...
 
Автор Сообщение

Polarnik

avatar Polarnik


♦ Burning Spear - Living Dub, Vol. 4 ♦

Жанр: Reggae, Dub
Год издания: 1999
Издатель (лейбл): M10
Номер по каталогу: 123062
Аудиокодек: FLAC (*.flac)
Тип рипа: image+.cue
Битрейт аудио: lossless
Продолжительность: 00:56:52
Источник (релизер): dreadbull
Наличие сканов в содержимом раздачи: да

Треклист:

01. Dub It Clean [04:24]
02. Dub Appointment [04:57]
03. First Time Dub [04:46]
04. Physician Dub [05:12]
05. Jah Dub [04:15]
06. Dub Smart [04:42]
07. Peaceful Dub [04:12]
08. Dub African [04:30]
09. My Island Dub [05:14]
10. Music Dub [04:32]
11. Loving Dub [05:08]
12. Untitled [04:55]
Exact Audio Copy V1.0 beta 3 from 29. August 2011

EAC extraction logfile from 6. September 2013, 16:59

Burning Spear / Living Dub Vol.4

Used drive : ASUS DRW-22B2L Adapter: 0 ID: 0

Read mode : SecureUtilize accurate stream : YesDefeat audio cache : YesMake use of C2 pointers : No

Read offset correction : 6Overread into Lead-In and Lead-Out : NoFill up missing offset samples with silence : YesDelete leading and trailing silent blocks : NoNull samples used in CRC calculations : YesUsed interface : Native Win32 interface for Win NT & 2000

Used output format : User Defined EncoderSelected bitrate : 128 kBit/sQuality : HighAdd ID3 tag : YesCommand line compressor : C:\Program Files (x86)\FLAC\flac.exeAdditional command line options : -8 -V -T "ARTIST=%artist%" -T "TITLE=%title%" -T "ALBUM=%albumtitle%" -T "DATE=%year%" -T "TRACKNUMBER=%tracknr%" -T "GENRE=%genre%" -T "PERFORMER=%albuminterpret%" -T "COMPOSER=%composer%" %haslyrics%--tag-from-file=LYRICS="%lyricsfile%"%haslyrics% -T "ALBUMARTIST=%albumartist%" -T "DISCNUMBER=%cdnumber%" -T "TOTALDISCS=%totalcds%" -T "TOTALTRACKS=%numtracks%" -T "COMMENT=%comment%" %source% -o %dest%

TOC of the extracted CD

Track | Start | Length | Start sector | End sector --------------------------------------------------------- 1 | 0:00.00 | 4:24.45 | 0 | 19844 2 | 4:24.45 | 4:57.57 | 19845 | 42176 3 | 9:22.27 | 4:46.67 | 42177 | 63693 4 | 14:09.19 | 5:12.16 | 63694 | 87109 5 | 19:21.35 | 4:15.46 | 87110 | 106280 6 | 23:37.06 | 4:42.17 | 106281 | 127447 7 | 28:19.23 | 4:12.13 | 127448 | 146360 8 | 32:31.36 | 4:30.37 | 146361 | 166647 9 | 37:01.73 | 5:14.71 | 166648 | 190268 10 | 42:16.69 | 4:32.13 | 190269 | 210681 11 | 46:49.07 | 5:08.00 | 210682 | 233781 12 | 51:57.07 | 4:55.62 | 233782 | 255968

Range status and errors

Selected range

Filename G:\Donkey Files\Burning Spear - Living Dub Vol.4 (1999, M10) [eac-flac-scans] byDrBull\Burning Spear - Living Dub Vol.4.wav

Peak level 96.6 % Extraction speed 3.0 X Range quality 100.0 % Test CRC 2D38AA18 Copy CRC 2D38AA18 Copy OK

No errors occurred

AccurateRip summary

Track 1 accurately ripped (confidence 1) [E9409A6A] (AR v2)Track 2 accurately ripped (confidence 1) [8F2C2AF4] (AR v2)Track 3 accurately ripped (confidence 1) [3C8E861F] (AR v2)Track 4 accurately ripped (confidence 1) [28A8F010] (AR v2)Track 5 accurately ripped (confidence 1) [7D2D0AB5] (AR v2)Track 6 accurately ripped (confidence 1) [0DD4167B] (AR v2)Track 7 accurately ripped (confidence 1) [75421972] (AR v2)Track 8 accurately ripped (confidence 1) [7FA0D59B] (AR v2)Track 9 accurately ripped (confidence 1) [7B3DDB82] (AR v2)Track 10 accurately ripped (confidence 1) [C4227E7D] (AR v2)Track 11 accurately ripped (confidence 1) [0502B70A] (AR v2)Track 12 accurately ripped (confidence 1) [0C650A54] (AR v2)

All tracks accurately ripped

End of status report

---- CUETools DB Plugin V2.1.3

[CTDB TOCID: UWlFyV2OdcskbEOgcji_NiXP6JA-] found, Submit result: UWlFyV2OdcskbEOgcji_NiXP6JA- has been confirmed[7e1d8eef] (1/1) Accurately ripped
REM GENRE ReggaeREM DATE 1999REM DISCID 970D540CREM COMMENT "ExactAudioCopy v1.0b3"PERFORMER "Burning Spear"TITLE "Living Dub Vol.4"FILE "Burning Spear - Living Dub Vol.4.flac" WAVE TRACK 01 AUDIO TITLE "Dub It Clean" PERFORMER "Burning Spear" INDEX 01 00:00:00 TRACK 02 AUDIO TITLE "Dub Appointment" PERFORMER "Burning Spear" INDEX 01 04:24:45 TRACK 03 AUDIO TITLE "First Time Dub" PERFORMER "Burning Spear" INDEX 01 09:22:27 TRACK 04 AUDIO TITLE "Physician Dub" PERFORMER "Burning Spear" INDEX 01 14:09:19 TRACK 05 AUDIO TITLE "Jah Dub" PERFORMER "Burning Spear" INDEX 01 19:21:35 TRACK 06 AUDIO TITLE "Dub Smart" PERFORMER "Burning Spear" INDEX 01 23:37:06 TRACK 07 AUDIO TITLE "Peaceful Dub" PERFORMER "Burning Spear" INDEX 01 28:19:23 TRACK 08 AUDIO TITLE "Dub African" PERFORMER "Burning Spear" INDEX 01 32:31:36 TRACK 09 AUDIO TITLE "My Island Dub" PERFORMER "Burning Spear" INDEX 01 37:01:73 TRACK 10 AUDIO TITLE "Music Dub" PERFORMER "Burning Spear" INDEX 01 42:16:69 TRACK 11 AUDIO TITLE "Loving Dub" PERFORMER "Burning Spear" INDEX 01 46:49:07 TRACK 12 AUDIO TITLE "Untitled" PERFORMER "Burning Spear" INDEX 01 51:57:07
Burning Spear:

Nelson Miller - drums;
James Smith - rumpet;
Lenvall Jarrett - rhythm guitar;
Num - percussion;
Winston Rodney - conga & percussion.


Additional musicians:

Tony Williams - drums;
Trevor McKenzie, Colin Elliot - bass;
Robbie Lyn, Steven Stewart, Barry O''Hare - keyboards;
Rupert Bent - lead guitar;
Nambo Robinson - trombone;
Howard Messam - saxophone;
Carol Passlon, Edna Rodney, Rachell Bradshaw, Yvonne Patrick, Sharon Gordon, Lyn, Num Heru-ur Shutef Amon Tehu, Winston Rodney - backing vocals.
Rec. at Groove Music Studio, Ocho Rios, St. Ann''s, Jamaica.


Трекер:  [ 25-Сен-2013 07:49 ]

  

Скачать .torrent

Размер .torrent файла 16 KB


Размер: 382 MB
Хэш (hash) релиза: 1d7b492ca1c908866db629971b7a0182b830bf30

Еще никто не оставлял запись к записи скачать торрент Burning Spear - Living Dub, Vol. 4 - 1999, FLAC . Будь первым!

!Обратная связь