Скачать порно через торрент Do-S Bitch Idol Miracle * Change! Choco! Pine UnionPeer.org бесплатно онлайн HD качество

Скачать новое порно 2015, 2014 новинки через торрент UnionPeer.org

Порно торрент бесплатно ЮнионПир.орг

Если у вас наблюдаются проблемы со скриншотами, переходом по ссылками, скачиванием торрентов - проблемы в блокировщике рекламы AdBlock. #хорошегоДня!


Статистика раздачи
Размер:  302 MB   |    Зарегистрирован:  3 года 11 месяцев   |    .torrent скачан:  245 раз   |   
Раздают:  1  
   
Загрузка...
 
Автор Сообщение

LinGr

avatar LinGr


Do-S Bitch Idol Miracle * Change! Choco! Pine
ドS・ロリビッチ・アイドル みらくる☆ちぇんじ グー!チョコ!パイン

Год производства: 2013 г.
26/07/2013
Жанр: Breasts, Anime,Cosplay
Продолжительность: 15:03
Цензура: Есть во всех файлах

Язык: Японский
Озвучка: Оригинальная

Студия:
miconisomi


Описание:
Каждый человек знает имя супер-известным Харуна Фукухара.
Ее прозвище Pine-чан, из ТВ-шоу она играет дюйма Она поет, она делает действия,
Девушка действительно мульти-талантливая.
Теперь есть новая кампания для своих поклонников. Победитель получает быть "менеджер Pine-чан в течение дня!"
Этот человек будет иметь полную автономию в Харуна. Что может пойти не так?


Доп. информация:
- Все полностью озвучена! (CV: Ао Inukai)
- Multi-угол функция
- Супер садистские грязные озвучки!
- Грудь ощупью, футджоб, генитальный-на-генитальной стимуляции, грудь секс,
проникновение во время рукопожатия событий, минут на поезде, сценическое шоу
рабства, отсталой пастушка секс, оргии!
Качество видео: GameRip
Формат видео: WMV
Видео кодек: Windows Media
Аудио кодек: WMA
Видео: Windows Media Video 9 904x672 30fps 2334kbps
Аудио 1: WMA Pro 44100Hz stereo 440kbps

Video
ID : 1
Format : VC-1
Format profile : MP@HL
Codec ID : WMV3
Codec ID/Info : Windows Media Video 9
Codec ID/Hint : WMV3
Description of the codec : Windows Media Video 9
Duration : 15mn 3s
Bit rate mode : Variable
Bit rate : 2 335 Kbps
Width : 904 pixels
Height : 672 pixels
Display aspect ratio : 4:3
Frame rate : 30.000 fps
Bit depth : 8 bits
Scan type : Progressive
Compression mode : Lossy
Bits/(Pixel*Frame) : 0.128
Stream size : 252 MiB (83%)

Audio
ID : 2
Format : WMA
Format profile : Pro
Codec ID : 162
Codec ID/Info : Windows Media Audio
Description of the codec : Windows Media Audio 10 Professional - 440 kbps, 44 kHz, 2 channel 24 bit (A/V) 1-pass CBR
Duration : 15mn 3s
Bit rate mode : Constant
Bit rate : 440 Kbps
Channel(s) : 2 channels
Sampling rate : 44.1 KHz
Bit depth : 24 bits
Stream size : 47.4 MiB (16%)



Трекер:  [ 13-Сен-2013 06:58 ]

  

Скачать .torrent

Размер .torrent файла 12 KB


Размер: 302 MB
Хэш (hash) релиза: 52dc47c2240b090f6fb9e84983703229d6610ac5

bot

Топик был перенесен в форум Хентай | С цензурой

Перенес LinGr

Хотите добавить комментарий к записи скачать торрент Do-S Bitch Idol Miracle * Change! Choco! Pine

!Обратная связь