Скачать через торрент музыку Доктор Кто Doctor Who: Series 1-7 + The Specials бесплатно без регистрации torrent

Если у вас наблюдаются проблемы со скриншотами, переходом по ссылками, скачиванием торрентов - проблемы в блокировщике рекламы AdBlock. #хорошегоДня!


Статистика раздачи
Размер:  4.34 GB   |    Зарегистрирован:  4 года 2 месяца   |    .torrent скачан:  39 раз   |   
Раздают:  1  
   
Загрузка...
 
Автор Сообщение

Polarnik

avatar Polarnik


Доктор Кто / Doctor Who
Series 1-7 + The Specials (12 CD)
Music by Murray Gold
With The BBC National Orchestra of Wales

Жанр: Score
Года выпуска дисков: 2006-2013
Производитель дисков: Silva Screen

Аудио кодек: FLAC
Тип рипа: tracks+.cue
Битрейт аудио: lossless

Продолжительность указана отдельно для каждого CD

Источник: WhatCD
Мюррей Голд / Murray Gold

Родился в 1969 году, Портсмут, Англия (Portsmouth, England).

Четырехкратный номинант премии BAFTA (The British Academy of Film and Television Arts) в категории "Best Original Television Music" за Vanity Fair (1999), Queer as Folk (2000), Casanova (2006) и Doctor Who (2008).

Много раз работал с Расселом Т Девисом (Russell T Davies), сценаристом и исполнительным продюсером телесериала "Доктор Кто", на таких проектах, как "Казанова (Casanova)" (с Девидом Теннантом в главной роли), "Второе пришествие (Second Comin)" (с Кристофером Экклстоном в главной роли) и "Лучшие друзья (Queer as Folk)" (Британская версия).

Начиная с 2005 года является музыкальным директором сериала "Доктор Кто". В этом качестве он создал новую заглавную тему для шоу. Silva Screen Records выпустил сборники музыки сериала Доктор Кто: первых двух сезонов - 11 декабря 2006 года, третьего сезона - 5 ноября 2007 года и четвертого сезона - в ноябре 2008 года.
Помимо написания музыки для "Доктора Кто", пишет и для двух ответвлений сериала - "Приключения Сары Джейн (The Sarah Jane Adventures)" и в соавторстве с Беном Фостером (Ben Foster) для "Торчвуда (Torchwood)". Сборник "Torchwood: Original Television Soundtrack" вышел в августе 2008 года.

Создал и организовал два специальных концерта с использованием музыки из сериала: "Доктор Кто - Торжество (Doctor Who - A Celebration)", прошедший в Welsh Millennium Centre в 2006 году, и "Доктор Кто на Промсе (Doctor Who at The Proms)", прошедший в Лондонском Royal Albert Hall в 2008 году.

Голд не только пишет музыку к сериалу, но и снялся в эпизодической роли в рождественском спецвыпуске "Путешествие проклятых (Voyage of the Damned)".

Продолжительность: 01:15:26
01. Doctor Who Theme (Tv Version) [0:41]
02. Westminster Bridge [2:07]
03. The Doctors Theme [1:17]
04. Cassandras Waltz [3:07]
05. Slitheen [1:21]
06. Fathers Day [1:55]
07. Rose In The Peril [1:39]
08. Boom Town Suite [3:01]
09. I''m Coming To Get You [1:12]
10. Hologram [2:15]
11. Rose Defeats The Daleks [2:31]
12. Clockwork Tardis [1:17]
13. Harriet Jones Prime Minister [2:13]
14. Roses Theme [2:14]
15. Song For Ten (Performed By Neil Hannon) [3:29]
16. The Face Of The Boe [1:16]
17. Unit [1:44]
18. Seeking The Doctor [0:44]
19. Madame De Pompadour [3:44]
20. Tooth And Claw [3:49]
21. The Lone Dalek [4:59]
22. New Adventures [2:18]
23. Finding Jackie [0:54]
24. Monster Bossa [1:37]
25. The Daleks [3:01]
26. The Cyberman [4:32]
27. Doomsday [5:09]
28. The Impossible Planet [3:11]
29. Sycorax Encounter [1:13]
30. Love Don''t Roam (Performed By Neil Hannon) [3:58]
31. Doctor Who Theme (Album Version) [2:35]
Exact Audio Copy V0.99 prebeta 4 from 23. January 2008

EAC extraction logfile from 29. May 2008, 20:37

Murray Gold / Doctor Who Original Music From Series One And Two

Used drive : HL-DT-STDVDRAM GSA-4167B Adapter: 0 ID: 0

Read mode : SecureUtilize accurate stream : YesDefeat audio cache : YesMake use of C2 pointers : No

Read offset correction : 667Overread into Lead-In and Lead-Out : NoFill up missing offset samples with silence : YesDelete leading and trailing silent blocks : NoNull samples used in CRC calculations : YesUsed interface : Native Win32 interface for Win NT & 2000Gap handling : Appended to previous track

Used output format : User Defined EncoderSelected bitrate : 192 kBit/sQuality : HighAdd ID3 tag : NoCommand line compressor : C:\Program Files\Exact Audio Copy\Flac\flac.exeAdditional command line options : -8 -A tukey(0.25) -A gauss(0.1875) -b 4096 -V -T "artist=%a" -T "title=%t" -T "album=%g" -T "date=%y" -T "tracknumber=%n" -T "genre=%m" %s --sector-align

TOC of the extracted CD

Track | Start | Length | Start sector | End sector --------------------------------------------------------- 1 | 0:00.00 | 0:41.53 | 0 | 3127 2 | 0:41.53 | 2:08.25 | 3128 | 12752 3 | 2:50.03 | 1:18.28 | 12753 | 18630 4 | 4:08.31 | 3:08.22 | 18631 | 32752 5 | 7:16.53 | 1:22.17 | 32753 | 38919 6 | 8:38.70 | 1:55.37 | 38920 | 47581 7 | 10:34.32 | 1:40.08 | 47582 | 55089 8 | 12:14.40 | 3:02.16 | 55090 | 68755 9 | 15:16.56 | 1:12.32 | 68756 | 74187 10 | 16:29.13 | 2:15.37 | 74188 | 84349 11 | 18:44.50 | 2:31.32 | 84350 | 95706 12 | 21:16.07 | 1:18.25 | 95707 | 101581 13 | 22:34.32 | 2:13.38 | 101582 | 111594 14 | 24:47.70 | 2:14.32 | 111595 | 121676 15 | 27:02.27 | 3:29.58 | 121677 | 137409 16 | 30:32.10 | 1:16.69 | 137410 | 143178 17 | 31:49.04 | 1:44.43 | 143179 | 151021 18 | 33:33.47 | 0:44.55 | 151022 | 154376 19 | 34:18.27 | 3:44.46 | 154377 | 171222 20 | 38:02.73 | 3:50.28 | 171223 | 188500 21 | 41:53.26 | 4:59.69 | 188501 | 210994 22 | 46:53.20 | 2:19.12 | 210995 | 221431 23 | 49:12.32 | 0:54.37 | 221432 | 225518 24 | 50:06.69 | 1:37.32 | 225519 | 232825 25 | 51:44.26 | 3:01.28 | 232826 | 246428 26 | 54:45.54 | 4:32.32 | 246429 | 266860 27 | 59:18.11 | 5:09.53 | 266861 | 290088 28 | 64:27.64 | 3:11.37 | 290089 | 304450 29 | 67:39.26 | 1:13.33 | 304451 | 309958 30 | 68:52.59 | 3:57.25 | 309959 | 327758 31 | 72:50.09 | 2:36.39 | 327759 | 339497

Track 1

Filename C:\Documents and Settings\Jun\My Documents\My Music\DOCTOR WHO\01 - Murray Gold - DOCTOR WHO THEME - TV version.wav

Pre-gap length 0:00:02.00

Peak level 82.0 % Track quality 100.0 % Test CRC 3B9151D6 Copy CRC 3B9151D6 Copy OK

Track 2

Filename C:\Documents and Settings\Jun\My Documents\My Music\DOCTOR WHO\02 - Murray Gold - WESTMINTR BRIDGE.wav

Peak level 99.9 % Track quality 100.0 % Test CRC 77339D4E Copy CRC 77339D4E Copy OK

Track 3

Filename C:\Documents and Settings\Jun\My Documents\My Music\DOCTOR WHO\03 - Murray Gold - THE DOCTOR''S THEME.wav

Peak level 71.9 % Track quality 99.8 % Test CRC A2155EE1 Copy CRC A2155EE1 Copy OK

Track 4

Filename C:\Documents and Settings\Jun\My Documents\My Music\DOCTOR WHO\04 - Murray Gold - CASSANDRA''S WALTZ.wav

Peak level 99.9 % Track quality 99.9 % Test CRC DD1FC511 Copy CRC DD1FC511 Copy OK

Track 5

Filename C:\Documents and Settings\Jun\My Documents\My Music\DOCTOR WHO\05 - Murray Gold - SLITHEEN.wav

Peak level 99.9 % Track quality 100.0 % Test CRC 0252717A Copy CRC 0252717A Copy OK

Track 6

Filename C:\Documents and Settings\Jun\My Documents\My Music\DOCTOR WHO\06 - Murray Gold - FATHER'' DAY.wav

Copy aborted

Track 7

Copy aborted

Track 8

Copy aborted

Track 9

Copy aborted

Track 10

Copy aborted

Track 11

Copy aborted

Track 12

Copy aborted

Track 13

Copy aborted

Track 14

Copy aborted

Track 15

Copy aborted

Track 16

Copy aborted

Track 17

Copy aborted

Track 18

Copy aborted

Track 19

Copy aborted

Track 20

Copy aborted

Track 21

Copy aborted

Track 22

Copy aborted

Track 23

Copy aborted

Track 24

Copy aborted

Track 25

Copy aborted

Track 26

Copy aborted

Track 27

Copy aborted

Track 28

Copy aborted

Track 29

Copy aborted

Track 30

Copy aborted

Track 31

Copy aborted

There were errors

End of status report

------------------------------------------------------------

Exact Audio Copy V0.99 prebeta 4 from 23. January 2008

EAC extraction logfile from 30. May 2008, 0:09

Murray Gold / Doctor Who Original Music From Series One And Two

Used drive : HL-DT-STDVDRAM GSA-4167B Adapter: 0 ID: 0

Read mode : SecureUtilize accurate stream : YesDefeat audio cache : YesMake use of C2 pointers : No

Read offset correction : 667Overread into Lead-In and Lead-Out : NoFill up missing offset samples with silence : YesDelete leading and trailing silent blocks : NoNull samples used in CRC calculations : YesUsed interface : Native Win32 interface for Win NT & 2000Gap handling : Appended to previous track

Used output format : User Defined EncoderSelected bitrate : 192 kBit/sQuality : HighAdd ID3 tag : NoCommand line compressor : C:\Program Files\Exact Audio Copy\Flac\flac.exeAdditional command line options : -8 -A tukey(0.25) -A gauss(0.1875) -b 4096 -V -T "artist=%a" -T "title=%t" -T "album=%g" -T "date=%y" -T "tracknumber=%n" -T "genre=%m" %s --sector-align

TOC of the extracted CD

Track | Start | Length | Start sector | End sector --------------------------------------------------------- 1 | 0:00.00 | 0:41.53 | 0 | 3127 2 | 0:41.53 | 2:08.25 | 3128 | 12752 3 | 2:50.03 | 1:18.28 | 12753 | 18630 4 | 4:08.31 | 3:08.22 | 18631 | 32752 5 | 7:16.53 | 1:22.17 | 32753 | 38919 6 | 8:38.70 | 1:55.37 | 38920 | 47581 7 | 10:34.32 | 1:40.08 | 47582 | 55089 8 | 12:14.40 | 3:02.16 | 55090 | 68755 9 | 15:16.56 | 1:12.32 | 68756 | 74187 10 | 16:29.13 | 2:15.37 | 74188 | 84349 11 | 18:44.50 | 2:31.32 | 84350 | 95706 12 | 21:16.07 | 1:18.25 | 95707 | 101581 13 | 22:34.32 | 2:13.38 | 101582 | 111594 14 | 24:47.70 | 2:14.32 | 111595 | 121676 15 | 27:02.27 | 3:29.58 | 121677 | 137409 16 | 30:32.10 | 1:16.69 | 137410 | 143178 17 | 31:49.04 | 1:44.43 | 143179 | 151021 18 | 33:33.47 | 0:44.55 | 151022 | 154376 19 | 34:18.27 | 3:44.46 | 154377 | 171222 20 | 38:02.73 | 3:50.28 | 171223 | 188500 21 | 41:53.26 | 4:59.69 | 188501 | 210994 22 | 46:53.20 | 2:19.12 | 210995 | 221431 23 | 49:12.32 | 0:54.37 | 221432 | 225518 24 | 50:06.69 | 1:37.32 | 225519 | 232825 25 | 51:44.26 | 3:01.28 | 232826 | 246428 26 | 54:45.54 | 4:32.32 | 246429 | 266860 27 | 59:18.11 | 5:09.53 | 266861 | 290088 28 | 64:27.64 | 3:11.37 | 290089 | 304450 29 | 67:39.26 | 1:13.33 | 304451 | 309958 30 | 68:52.59 | 3:57.25 | 309959 | 327758 31 | 72:50.09 | 2:36.39 | 327759 | 339497

Track 1

Filename C:\Documents and Settings\Jun\My Documents\My Music\DOCTOR WHO\01 - Murray Gold - DOCTOR WHO THEME - TV version.wav

Pre-gap length 0:00:02.00

Peak level 82.0 % Track quality 100.0 % Test CRC 3B9151D6 Copy CRC 3B9151D6 Copy OK

Track 2

Filename C:\Documents and Settings\Jun\My Documents\My Music\DOCTOR WHO\02 - Murray Gold - WESTMINTR BRIDGE.wav

Peak level 99.9 % Track quality 100.0 % Test CRC 77339D4E Copy CRC 77339D4E Copy OK

Track 3

Filename C:\Documents and Settings\Jun\My Documents\My Music\DOCTOR WHO\03 - Murray Gold - THE DOCTOR''S THEME.wav

Peak level 71.9 % Track quality 99.8 % Test CRC A2155EE1 Copy CRC A2155EE1 Copy OK

Track 4

Filename C:\Documents and Settings\Jun\My Documents\My Music\DOCTOR WHO\04 - Murray Gold - CASSANDRA''S WALTZ.wav

Peak level 99.9 % Track quality 99.9 % Test CRC DD1FC511 Copy CRC DD1FC511 Copy OK

Track 5

Filename C:\Documents and Settings\Jun\My Documents\My Music\DOCTOR WHO\05 - Murray Gold - SLITHEEN.wav

Peak level 99.9 % Track quality 100.0 % Test CRC 0252717A Copy CRC 0252717A Copy OK

Track 6

Filename C:\Documents and Settings\Jun\My Documents\My Music\DOCTOR WHO\06 - Murray Gold - FATHER'' DAY.wav

Peak level 98.0 % Track quality 100.0 % Test CRC 8537B74E Copy CRC 8537B74E Copy OK

Track 7

Filename C:\Documents and Settings\Jun\My Documents\My Music\DOCTOR WHO\07 - Murray Gold - ROSE IN PEIL.wav

Peak level 99.9 % Track quality 100.0 % Test CRC 65462DF5 Copy CRC 65462DF5 Copy OK

Track 8

Filename C:\Documents and Settings\Jun\My Documents\My Music\DOCTOR WHO\08 - Murray Gold - BOOM TOWN SUITE.wav

Peak level 98.4 % Track quality 100.0 % Test CRC 38BB0FDD Copy CRC 38BB0FDD Copy OK

Track 9

Filename C:\Documents and Settings\Jun\My Documents\My Music\DOCTOR WHO\09 - Murray Gold - I''M COMING TO GET YOU.wav

Peak level 93.7 % Track quality 100.0 % Test CRC CD553290 Copy CRC CD553290 Copy OK

Track 10

Filename C:\Documents and Settings\Jun\My Documents\My Music\DOCTOR WHO\10 - Murray Gold - HOLOGRAM.wav

Peak level 99.9 % Track quality 99.9 % Test CRC 8346D0F7 Copy CRC 8346D0F7 Copy OK

Track 11

Filename C:\Documents and Settings\Jun\My Documents\My Music\DOCTOR WHO\11 - Murray Gold - ROSE DEFEATS THE DALEKS.wav

Peak level 99.9 % Track quality 99.9 % Test CRC C422020B Copy CRC C422020B Copy OK

Track 12

Filename C:\Documents and Settings\Jun\My Documents\My Music\DOCTOR WHO\12 - Murray Gold - CLOCKWORK TARDIS.wav

Peak level 94.9 % Track quality 99.8 % Test CRC 6B80F338 Copy CRC 6B80F338 Copy OK

Track 13

Filename C:\Documents and Settings\Jun\My Documents\My Music\DOCTOR WHO\13 - Murray Gold - HARRIET JONES, PRIME MINISTER.wav

Peak level 99.9 % Track quality 100.0 % Test CRC 4D143CF0 Copy CRC 4D143CF0 Copy OK

Track 14

Filename C:\Documents and Settings\Jun\My Documents\My Music\DOCTOR WHO\14 - Murray Gold - ROSE''S THEME.wav

Peak level 93.1 % Track quality 100.0 % Test CRC 3CE452D3 Copy CRC 3CE452D3 Copy OK

Track 15

Filename C:\Documents and Settings\Jun\My Documents\My Music\DOCTOR WHO\15 - Murray Gold - THE SONG FOR TEN (performed by Neil Hannon).wav

Peak level 93.7 % Track quality 100.0 % Test CRC 898000E5 Copy CRC 898000E5 Copy OK

Track 16

Filename C:\Documents and Settings\Jun\My Documents\My Music\DOCTOR WHO\16 - Murray Gold - THE FACE OF BOE.wav

Peak level 95.2 % Track quality 100.0 % Test CRC AD99E9CB Copy CRC AD99E9CB Copy OK

Track 17

Filename C:\Documents and Settings\Jun\My Documents\My Music\DOCTOR WHO\17 - Murray Gold - UNIT.wav

Peak level 96.2 % Track quality 100.0 % Test CRC 2630B805 Copy CRC 2630B805 Copy OK

Track 18

Filename C:\Documents and Settings\Jun\My Documents\My Music\DOCTOR WHO\18 - Murray Gold - SEEKING THE DOCTOR.wav

Peak level 87.9 % Track quality 100.0 % Test CRC 422CB541 Copy CRC 422CB541 Copy OK

Track 19

Filename C:\Documents and Settings\Jun\My Documents\My Music\DOCTOR WHO\19 - Murray Gold - MADAME DE POMPADOUR.wav

Peak level 94.3 % Track quality 100.0 % Test CRC B8A6747D Copy CRC B8A6747D Copy OK

Track 20

Filename C:\Documents and Settings\Jun\My Documents\My Music\DOCTOR WHO\20 - Murray Gold - TOOTH AND CLAW.wav

Peak level 99.9 % Track quality 100.0 % Test CRC 0C5372CC Copy CRC 0C5372CC Copy OK

Track 21

Filename C:\Documents and Settings\Jun\My Documents\My Music\DOCTOR WHO\21 - Murray Gold - THE LONE DALEK.wav

Peak level 99.9 % Track quality 100.0 % Test CRC 10F0ADA1 Copy CRC 10F0ADA1 Copy OK

Track 22

Filename C:\Documents and Settings\Jun\My Documents\My Music\DOCTOR WHO\22 - Murray Gold - NEW ADVENTURES.wav

Peak level 93.0 % Track quality 99.9 % Test CRC 544FED30 Copy CRC 544FED30 Copy OK

Track 23

Filename C:\Documents and Settings\Jun\My Documents\My Music\DOCTOR WHO\23 - Murray Gold - FINDING JACKIE.wav

Peak level 99.9 % Track quality 100.0 % Test CRC 320965D3 Copy CRC 320965D3 Copy OK

Track 24

Filename C:\Documents and Settings\Jun\My Documents\My Music\DOCTOR WHO\24 - Murray Gold - MONSTER BOSSA.wav

Peak level 99.9 % Track quality 100.0 % Test CRC D3D96B73 Copy CRC D3D96B73 Copy OK

Track 25

Filename C:\Documents and Settings\Jun\My Documents\My Music\DOCTOR WHO\25 - Murray Gold - THE DALEKS.wav

Peak level 99.1 % Track quality 100.0 % Test CRC 39235C88 Copy CRC 39235C88 Copy OK

Track 26

Filename C:\Documents and Settings\Jun\My Documents\My Music\DOCTOR WHO\26 - Murray Gold - THE CYBERMEN.wav

Peak level 99.9 % Track quality 100.0 % Test CRC 9908A1C1 Copy CRC 9908A1C1 Copy OK

Track 27

Filename C:\Documents and Settings\Jun\My Documents\My Music\DOCTOR WHO\27 - Murray Gold - DOOMSDAY.wav

Peak level 99.9 % Track quality 100.0 % Test CRC A5309A35 Copy CRC A5309A35 Copy OK

Track 28

Filename C:\Documents and Settings\Jun\My Documents\My Music\DOCTOR WHO\28 - Murray Gold - THE IMPOSSIBLE PLANET.wav

Peak level 98.1 % Track quality 100.0 % Test CRC CE1FEF5C Copy CRC CE1FEF5C Copy OK

Track 29

Filename C:\Documents and Settings\Jun\My Documents\My Music\DOCTOR WHO\29 - Murray Gold - SYCORAX ENCOUNTER.wav

Peak level 99.9 % Track quality 100.0 % Test CRC D4375A35 Copy CRC D4375A35 Copy OK

Track 30

Filename C:\Documents and Settings\Jun\My Documents\My Music\DOCTOR WHO\30 - Murray Gold - LOVE DON''T ROAM (performed by Neil Hannon).wav

Peak level 84.1 % Track quality 100.0 % Test CRC AE8FAD87 Copy CRC AE8FAD87 Copy OK

Track 31

Filename C:\Documents and Settings\Jun\My Documents\My Music\DOCTOR WHO\31 - Murray Gold - DOCTOR WHO THEME - Album Version.wav

Peak level 88.5 % Track quality 100.0 % Test CRC 5A5E88C2 Copy CRC 5A5E88C2 Copy OK

No errors occurred

End of status report
REM GENRE SoundTrackREM DATE 2006REM DISCID A811AE1FREM COMMENT "ExactAudioCopy v0.99pb4"PERFORMER "Murray Gold"TITLE "Doctor Who Original Music From Series One And Two"FILE "01 - Murray Gold - DOCTOR WHO THEME - TV version.wav" WAVE TRACK 01 AUDIO TITLE "DOCTOR WHO THEME - TV version" PERFORMER "Murray Gold" INDEX 01 00:00:00FILE "02 - Murray Gold - WESTMINTR BRIDGE.wav" WAVE TRACK 02 AUDIO TITLE "WESTMINTR BRIDGE" PERFORMER "Murray Gold" INDEX 01 00:00:00FILE "03 - Murray Gold - THE DOCTOR''S THEME.wav" WAVE TRACK 03 AUDIO TITLE "THE DOCTOR''S THEME" PERFORMER "Murray Gold" INDEX 01 00:00:00FILE "04 - Murray Gold - CASSANDRA''S WALTZ.wav" WAVE TRACK 04 AUDIO TITLE "CASSANDRA''S WALTZ" PERFORMER "Murray Gold" INDEX 01 00:00:00FILE "05 - Murray Gold - SLITHEEN.wav" WAVE TRACK 05 AUDIO TITLE "SLITHEEN" PERFORMER "Murray Gold" INDEX 01 00:00:00FILE "06 - Murray Gold - FATHER'' DAY.wav" WAVE TRACK 06 AUDIO TITLE "FATHER'' DAY" PERFORMER "Murray Gold" INDEX 01 00:00:00FILE "07 - Murray Gold - ROSE IN PEIL.wav" WAVE TRACK 07 AUDIO TITLE "ROSE IN PEIL" PERFORMER "Murray Gold" INDEX 01 00:00:00FILE "08 - Murray Gold - BOOM TOWN SUITE.wav" WAVE TRACK 08 AUDIO TITLE "BOOM TOWN SUITE" PERFORMER "Murray Gold" INDEX 01 00:00:00FILE "09 - Murray Gold - I''M COMING TO GET YOU.wav" WAVE TRACK 09 AUDIO TITLE "I''M COMING TO GET YOU" PERFORMER "Murray Gold" INDEX 01 00:00:00FILE "10 - Murray Gold - HOLOGRAM.wav" WAVE TRACK 10 AUDIO TITLE "HOLOGRAM" PERFORMER "Murray Gold" INDEX 01 00:00:00FILE "11 - Murray Gold - ROSE DEFEATS THE DALEKS.wav" WAVE TRACK 11 AUDIO TITLE "ROSE DEFEATS THE DALEKS" PERFORMER "Murray Gold" INDEX 01 00:00:00FILE "12 - Murray Gold - CLOCKWORK TARDIS.wav" WAVE TRACK 12 AUDIO TITLE "CLOCKWORK TARDIS" PERFORMER "Murray Gold" INDEX 01 00:00:00FILE "13 - Murray Gold - HARRIET JONES, PRIME MINISTER.wav" WAVE TRACK 13 AUDIO TITLE "HARRIET JONES, PRIME MINISTER" PERFORMER "Murray Gold" INDEX 01 00:00:00FILE "14 - Murray Gold - ROSE''S THEME.wav" WAVE TRACK 14 AUDIO TITLE "ROSE''S THEME" PERFORMER "Murray Gold" INDEX 01 00:00:00FILE "15 - Murray Gold - THE SONG FOR TEN (performed by Neil Hannon).wav" WAVE TRACK 15 AUDIO TITLE "THE SONG FOR TEN (performed by Neil Hannon)" PERFORMER "Murray Gold" INDEX 01 00:00:00FILE "16 - Murray Gold - THE FACE OF BOE.wav" WAVE TRACK 16 AUDIO TITLE "THE FACE OF BOE" PERFORMER "Murray Gold" INDEX 01 00:00:00FILE "17 - Murray Gold - UNIT.wav" WAVE TRACK 17 AUDIO TITLE "UNIT" PERFORMER "Murray Gold" INDEX 01 00:00:00FILE "18 - Murray Gold - SEEKING THE DOCTOR.wav" WAVE TRACK 18 AUDIO TITLE "SEEKING THE DOCTOR" PERFORMER "Murray Gold" INDEX 01 00:00:00FILE "19 - Murray Gold - MADAME DE POMPADOUR.wav" WAVE TRACK 19 AUDIO TITLE "MADAME DE POMPADOUR" PERFORMER "Murray Gold" INDEX 01 00:00:00FILE "20 - Murray Gold - TOOTH AND CLAW.wav" WAVE TRACK 20 AUDIO TITLE "TOOTH AND CLAW" PERFORMER "Murray Gold" INDEX 01 00:00:00FILE "21 - Murray Gold - THE LONE DALEK.wav" WAVE TRACK 21 AUDIO TITLE "THE LONE DALEK" PERFORMER "Murray Gold" INDEX 01 00:00:00FILE "22 - Murray Gold - NEW ADVENTURES.wav" WAVE TRACK 22 AUDIO TITLE "NEW ADVENTURES" PERFORMER "Murray Gold" INDEX 01 00:00:00FILE "23 - Murray Gold - FINDING JACKIE.wav" WAVE TRACK 23 AUDIO TITLE "FINDING JACKIE" PERFORMER "Murray Gold" INDEX 01 00:00:00FILE "24 - Murray Gold - MONSTER BOSSA.wav" WAVE TRACK 24 AUDIO TITLE "MONSTER BOSSA" PERFORMER "Murray Gold" INDEX 01 00:00:00FILE "25 - Murray Gold - THE DALEKS.wav" WAVE TRACK 25 AUDIO TITLE "THE DALEKS" PERFORMER "Murray Gold" INDEX 01 00:00:00FILE "26 - Murray Gold - THE CYBERMEN.wav" WAVE TRACK 26 AUDIO TITLE "THE CYBERMEN" PERFORMER "Murray Gold" INDEX 01 00:00:00FILE "27 - Murray Gold - DOOMSDAY.wav" WAVE TRACK 27 AUDIO TITLE "DOOMSDAY" PERFORMER "Murray Gold" INDEX 01 00:00:00FILE "28 - Murray Gold - THE IMPOSSIBLE PLANET.wav" WAVE TRACK 28 AUDIO TITLE "THE IMPOSSIBLE PLANET" PERFORMER "Murray Gold" INDEX 01 00:00:00FILE "29 - Murray Gold - SYCORAX ENCOUNTER.wav" WAVE TRACK 29 AUDIO TITLE "SYCORAX ENCOUNTER" PERFORMER "Murray Gold" INDEX 01 00:00:00FILE "30 - Murray Gold - LOVE DON''T ROAM (performed by Neil Hannon).wav" WAVE TRACK 30 AUDIO TITLE "LOVE DON''T ROAM (performed by Neil Hannon)" PERFORMER "Murray Gold" INDEX 01 00:00:00FILE "31 - Murray Gold - DOCTOR WHO THEME - Album Version.wav" WAVE TRACK 31 AUDIO TITLE "DOCTOR WHO THEME - Album Version" PERFORMER "Murray Gold" INDEX 01 00:00:00
Продолжительность: 01:14:37
01. All the Strange, Strange Creatures (the trailer music) [04:08]
02. Martha''s Theme [03:42]
03. Drowning Dry [01:54]
04. The Carrionites Swarm [03:23]
05. Gridlocked Cassinis [01:17]
06. Boe [03:43]
07. Evolution of the Daleks [01:53]
08. My Angel Put The Devil in Me (performed by Yamit Mamo) [03:09]
09. Mr Smith and Joan [02:06]
10. Only Martha Knows [02:31]
11. Smith''s Choice [01:42]
12. Just Scarecrows to War [01:31]
13. Miss Joan Redfern [01:51]
14. The Dream of a Normal Death [01:56]
15. The Doctor Forever [04:19]
16. Blink (Suite) [02:55]
17. The Runaway Bride [04:18]
18. After the Chase [01:26]
19. The Futurekind [01:44]
20. Yana (Excerpt) [00:54]
21. The Master Vainglorious [03:22]
22. Martha''s Quest [03:20]
23. This is Gallifrey: Our Childhood, Our Home [03:17]
24. Martha Triumphant [02:49]
25. Donna''s Theme [03:14]
26. The Stowaway (performed by Yamit Mamo) [03:36]
27. The Master Tape [01:55]
28. Abide With Me [02:29]
Exact Audio Copy V0.99 prebeta 4 from 23. January 2008

EAC extraction logfile from 7. June 2008, 17:23

Murray Gold and the BBC National Orchestra of Wales / Doctor Who Original Soundtrack Series 3

Used drive : HL-DT-STDVDRAM GSA-4167B Adapter: 0 ID: 0

Read mode : SecureUtilize accurate stream : YesDefeat audio cache : YesMake use of C2 pointers : No

Read offset correction : 667Overread into Lead-In and Lead-Out : NoFill up missing offset samples with silence : YesDelete leading and trailing silent blocks : NoNull samples used in CRC calculations : YesUsed interface : Installed external ASPI interfaceGap handling : Appended to previous track

Used output format : User Defined EncoderSelected bitrate : 192 kBit/sQuality : HighAdd ID3 tag : NoCommand line compressor : C:\Program Files\Exact Audio Copy\Flac\flac.exeAdditional command line options : -8 -A tukey(0.25) -A gauss(0.1875) -b 4096 -V -T "artist=%a" -T "title=%t" -T "album=%g" -T "date=%y" -T "tracknumber=%n" -T "genre=%m" %s --sector-align

TOC of the extracted CD

Track | Start | Length | Start sector | End sector --------------------------------------------------------- 1 | 0:00.00 | 4:08.02 | 0 | 18601 2 | 4:08.02 | 3:42.55 | 18602 | 35306 3 | 7:50.57 | 1:54.57 | 35307 | 43913 4 | 9:45.39 | 3:23.39 | 43914 | 59177 5 | 13:09.03 | 1:17.69 | 59178 | 65021 6 | 14:26.72 | 3:43.49 | 65022 | 81795 7 | 18:10.46 | 1:53.61 | 81796 | 90331 8 | 20:04.32 | 3:09.01 | 90332 | 104507 9 | 23:13.33 | 2:06.07 | 104508 | 113964 10 | 25:19.40 | 2:31.44 | 113965 | 125333 11 | 27:51.09 | 1:42.32 | 125334 | 133015 12 | 29:33.41 | 1:31.02 | 133016 | 139842 13 | 31:04.43 | 1:51.54 | 139843 | 148221 14 | 32:56.22 | 1:56.20 | 148222 | 156941 15 | 34:52.42 | 4:19.14 | 156942 | 176380 16 | 39:11.56 | 2:55.43 | 176381 | 189548 17 | 42:07.24 | 4:18.44 | 189549 | 208942 18 | 46:25.68 | 1:26.40 | 208943 | 215432 19 | 47:52.33 | 1:44.23 | 215433 | 223255 20 | 49:36.56 | 0:54.54 | 223256 | 227359 21 | 50:31.35 | 3:22.33 | 227360 | 242542 22 | 53:53.68 | 3:20.11 | 242543 | 257553 23 | 57:14.04 | 3:17.40 | 257554 | 272368 24 | 60:31.44 | 2:49.73 | 272369 | 285116 25 | 63:21.42 | 3:14.42 | 285117 | 299708 26 | 66:36.09 | 3:36.35 | 299709 | 315943 27 | 70:12.44 | 1:55.26 | 315944 | 324594 28 | 72:07.70 | 2:29.12 | 324595 | 335781

Track 1

Filename C:\Documents and Settings\Jun\№ЩЕБ И­ёй\dr who ost\01 - Murray Gold and the BBC National Orchestra of Wales - All the Strange, Strange Creatures (the trailer music).wav

Pre-gap length 0:00:02.00

Peak level 96.6 % Track quality 99.9 % Test CRC 64D372EA Copy CRC 64D372EA Copy OK

Track 2

Filename C:\Documents and Settings\Jun\№ЩЕБ И­ёй\dr who ost\02 - Murray Gold and the BBC National Orchestra of Wales - Martha''s Theme.wav

Peak level 96.6 % Track quality 100.0 % Test CRC 49DFDCF7 Copy CRC 49DFDCF7 Copy OK

Track 3

Filename C:\Documents and Settings\Jun\№ЩЕБ И­ёй\dr who ost\03 - Murray Gold and the BBC National Orchestra of Wales - Drowning Dry.wav

Peak level 96.6 % Track quality 100.0 % Test CRC 815517F7 Copy CRC 815517F7 Copy OK

Track 4

Filename C:\Documents and Settings\Jun\№ЩЕБ И­ёй\dr who ost\04 - Murray Gold and the BBC National Orchestra of Wales - The Carrionites Swarm.wav

Peak level 96.6 % Track quality 99.9 % Test CRC 58271A53 Copy CRC 58271A53 Copy OK

Track 5

Filename C:\Documents and Settings\Jun\№ЩЕБ И­ёй\dr who ost\05 - Murray Gold and the BBC National Orchestra of Wales - Gridlocked Cassinis.wav

Peak level 96.6 % Track quality 100.0 % Test CRC 0929EDC6 Copy CRC 0929EDC6 Copy OK

Track 6

Filename C:\Documents and Settings\Jun\№ЩЕБ И­ёй\dr who ost\06 - Murray Gold and the BBC National Orchestra of Wales - Boe.wav

Peak level 96.6 % Track quality 100.0 % Test CRC FD8E169E Copy CRC FD8E169E Copy OK

Track 7

Filename C:\Documents and Settings\Jun\№ЩЕБ И­ёй\dr who ost\07 - Murray Gold and the BBC National Orchestra of Wales - Evolution of the Daleks.wav

Peak level 96.6 % Track quality 100.0 % Test CRC 7128332B Copy CRC 7128332B Copy OK

Track 8

Filename C:\Documents and Settings\Jun\№ЩЕБ И­ёй\dr who ost\08 - Murray Gold and the BBC National Orchestra of Wales - My Angel Put The Devil in Me (performed by Yamit Mamo).wav

Peak level 96.6 % Track quality 100.0 % Test CRC 2B58D299 Copy CRC 2B58D299 Copy OK

Track 9

Filename C:\Documents and Settings\Jun\№ЩЕБ И­ёй\dr who ost\09 - Murray Gold and the BBC National Orchestra of Wales - Mr Smith and Joan.wav

Peak level 96.6 % Track quality 100.0 % Test CRC 0426F941 Copy CRC 0426F941 Copy OK

Track 10

Filename C:\Documents and Settings\Jun\№ЩЕБ И­ёй\dr who ost\10 - Murray Gold and the BBC National Orchestra of Wales - Only Martha Knows.wav

Peak level 96.6 % Track quality 100.0 % Test CRC 3254A83B Copy CRC 3254A83B Copy OK

Track 11

Filename C:\Documents and Settings\Jun\№ЩЕБ И­ёй\dr who ost\11 - Murray Gold and the BBC National Orchestra of Wales - Smith''s Choice.wav

Peak level 96.6 % Track quality 100.0 % Test CRC 17C2574B Copy CRC 17C2574B Copy OK

Track 12

Filename C:\Documents and Settings\Jun\№ЩЕБ И­ёй\dr who ost\12 - Murray Gold and the BBC National Orchestra of Wales - Just Scarecrows to War.wav

Peak level 97.0 % Track quality 100.0 % Test CRC 33DB8B5D Copy CRC 33DB8B5D Copy OK

Track 13

Filename C:\Documents and Settings\Jun\№ЩЕБ И­ёй\dr who ost\13 - Murray Gold and the BBC National Orchestra of Wales - Miss Joan Redfern.wav

Peak level 96.6 % Track quality 100.0 % Test CRC C8EA34FA Copy CRC C8EA34FA Copy OK

Track 14

Filename C:\Documents and Settings\Jun\№ЩЕБ И­ёй\dr who ost\14 - Murray Gold and the BBC National Orchestra of Wales - The Dream of a Normal Death.wav

Peak level 96.6 % Track quality 100.0 % Test CRC CB18A977 Copy CRC CB18A977 Copy OK

Track 15

Filename C:\Documents and Settings\Jun\№ЩЕБ И­ёй\dr who ost\15 - Murray Gold and the BBC National Orchestra of Wales - The Doctor Forever.wav

Peak level 96.6 % Track quality 100.0 % Test CRC 09605909 Copy CRC 09605909 Copy OK

Track 16

Filename C:\Documents and Settings\Jun\№ЩЕБ И­ёй\dr who ost\16 - Murray Gold and the BBC National Orchestra of Wales - Blink (Suite).wav

Peak level 96.6 % Track quality 100.0 % Test CRC C356707A Copy CRC C356707A Copy OK

Track 17

Filename C:\Documents and Settings\Jun\№ЩЕБ И­ёй\dr who ost\17 - Murray Gold and the BBC National Orchestra of Wales - The Runaway Bride.wav

Peak level 96.6 % Track quality 100.0 % Test CRC E85DF540 Copy CRC E85DF540 Copy OK

Track 18

Filename C:\Documents and Settings\Jun\№ЩЕБ И­ёй\dr who ost\18 - Murray Gold and the BBC National Orchestra of Wales - After the Chase.wav

Peak level 54.1 % Track quality 100.0 % Test CRC E02A6D07 Copy CRC E02A6D07 Copy OK

Track 19

Filename C:\Documents and Settings\Jun\№ЩЕБ И­ёй\dr who ost\19 - Murray Gold and the BBC National Orchestra of Wales - The Futurekind.wav

Peak level 96.6 % Track quality 100.0 % Test CRC 52C2C8E7 Copy CRC 52C2C8E7 Copy OK

Track 20

Filename C:\Documents and Settings\Jun\№ЩЕБ И­ёй\dr who ost\20 - Murray Gold and the BBC National Orchestra of Wales - Yana (Excerpt).wav

Peak level 100.0 % Track quality 100.0 % Test CRC C241282A Copy CRC C241282A Copy OK

Track 21

Filename C:\Documents and Settings\Jun\№ЩЕБ И­ёй\dr who ost\21 - Murray Gold and the BBC National Orchestra of Wales - The Master Vainglorious.wav

Peak level 96.6 % Track quality 100.0 % Test CRC E8BD566D Copy CRC E8BD566D Copy OK

Track 22

Filename C:\Documents and Settings\Jun\№ЩЕБ И­ёй\dr who ost\22 - Murray Gold and the BBC National Orchestra of Wales - Martha''s Quest.wav

Peak level 96.6 % Track quality 100.0 % Test CRC 0BEA69BD Copy CRC 0BEA69BD Copy OK

Track 23

Filename C:\Documents and Settings\Jun\№ЩЕБ И­ёй\dr who ost\23 - Murray Gold and the BBC National Orchestra of Wales - This is Gallifrey- Our Childhood, Our Home.wav

Peak level 96.6 % Track quality 100.0 % Test CRC C3758E92 Copy CRC C3758E92 Copy OK

Track 24

Filename C:\Documents and Settings\Jun\№ЩЕБ И­ёй\dr who ost\24 - Murray Gold and the BBC National Orchestra of Wales - Martha Triumphant.wav

Peak level 96.6 % Track quality 100.0 % Test CRC F6DF57FB Copy CRC F6DF57FB Copy OK

Track 25

Filename C:\Documents and Settings\Jun\№ЩЕБ И­ёй\dr who ost\25 - Murray Gold and the BBC National Orchestra of Wales - Donna''s Theme.wav

Peak level 96.6 % Track quality 100.0 % Test CRC 2D6B799D Copy CRC 2D6B799D Copy OK

Track 26

Filename C:\Documents and Settings\Jun\№ЩЕБ И­ёй\dr who ost\26 - Murray Gold and the BBC National Orchestra of Wales - The Stowaway (performed by Yamit Mamo).wav

Peak level 96.6 % Track quality 100.0 % Test CRC 5DD1AD5C Copy CRC 5DD1AD5C Copy OK

Track 27

Filename C:\Documents and Settings\Jun\№ЩЕБ И­ёй\dr who ost\27 - Murray Gold and the BBC National Orchestra of Wales - The Master Tape.wav

Peak level 96.6 % Track quality 100.0 % Test CRC 075D9BEA Copy CRC 075D9BEA Copy OK

Track 28

Filename C:\Documents and Settings\Jun\№ЩЕБ И­ёй\dr who ost\28 - Murray Gold and the BBC National Orchestra of Wales - Abide With Me.wav

Peak level 81.9 % Track quality 100.0 % Test CRC 2682C511 Copy CRC 2682C511 Copy OK

No errors occurred

End of status report
REM GENRE SoundtrackREM DATE 2007REM DISCID C7117D1CREM COMMENT "ExactAudioCopy v0.99pb4"PERFORMER "Murray Gold and the BBC National Orchestra of Wales"TITLE "Doctor Who Original Soundtrack Series 3"FILE "01 - Murray Gold and the BBC National Orchestra of Wales - All the Strange, Strange Creatures (the trailer music).wav" WAVE TRACK 01 AUDIO TITLE "All the Strange, Strange Creatures (the trailer music)" PERFORMER "Murray Gold and the BBC National Orchestra of Wales" INDEX 01 00:00:00FILE "02 - Murray Gold and the BBC National Orchestra of Wales - Martha''s Theme.wav" WAVE TRACK 02 AUDIO TITLE "Martha''s Theme" PERFORMER "Murray Gold and the BBC National Orchestra of Wales" INDEX 01 00:00:00FILE "03 - Murray Gold and the BBC National Orchestra of Wales - Drowning Dry.wav" WAVE TRACK 03 AUDIO TITLE "Drowning Dry" PERFORMER "Murray Gold and the BBC National Orchestra of Wales" INDEX 01 00:00:00FILE "04 - Murray Gold and the BBC National Orchestra of Wales - The Carrionites Swarm.wav" WAVE TRACK 04 AUDIO TITLE "The Carrionites Swarm" PERFORMER "Murray Gold and the BBC National Orchestra of Wales" INDEX 01 00:00:00FILE "05 - Murray Gold and the BBC National Orchestra of Wales - Gridlocked Cassinis.wav" WAVE TRACK 05 AUDIO TITLE "Gridlocked Cassinis" PERFORMER "Murray Gold and the BBC National Orchestra of Wales" INDEX 01 00:00:00FILE "06 - Murray Gold and the BBC National Orchestra of Wales - Boe.wav" WAVE TRACK 06 AUDIO TITLE "Boe" PERFORMER "Murray Gold and the BBC National Orchestra of Wales" INDEX 01 00:00:00FILE "07 - Murray Gold and the BBC National Orchestra of Wales - Evolution of the Daleks.wav" WAVE TRACK 07 AUDIO TITLE "Evolution of the Daleks" PERFORMER "Murray Gold and the BBC National Orchestra of Wales" INDEX 01 00:00:00FILE "08 - Murray Gold and the BBC National Orchestra of Wales - My Angel Put The Devil in Me (performed by Yamit Mamo).wav" WAVE TRACK 08 AUDIO TITLE "My Angel Put The Devil in Me (performed by Yamit Mamo)" PERFORMER "Murray Gold and the BBC National Orchestra of Wales" INDEX 01 00:00:00FILE "09 - Murray Gold and the BBC National Orchestra of Wales - Mr Smith and Joan.wav" WAVE TRACK 09 AUDIO TITLE "Mr Smith and Joan" PERFORMER "Murray Gold and the BBC National Orchestra of Wales" INDEX 01 00:00:00FILE "10 - Murray Gold and the BBC National Orchestra of Wales - Only Martha Knows.wav" WAVE TRACK 10 AUDIO TITLE "Only Martha Knows" PERFORMER "Murray Gold and the BBC National Orchestra of Wales" INDEX 01 00:00:00FILE "11 - Murray Gold and the BBC National Orchestra of Wales - Smith''s Choice.wav" WAVE TRACK 11 AUDIO TITLE "Smith''s Choice" PERFORMER "Murray Gold and the BBC National Orchestra of Wales" INDEX 01 00:00:00FILE "12 - Murray Gold and the BBC National Orchestra of Wales - Just Scarecrows to War.wav" WAVE TRACK 12 AUDIO TITLE "Just Scarecrows to War" PERFORMER "Murray Gold and the BBC National Orchestra of Wales" INDEX 01 00:00:00FILE "13 - Murray Gold and the BBC National Orchestra of Wales - Miss Joan Redfern.wav" WAVE TRACK 13 AUDIO TITLE "Miss Joan Redfern" PERFORMER "Murray Gold and the BBC National Orchestra of Wales" INDEX 01 00:00:00FILE "14 - Murray Gold and the BBC National Orchestra of Wales - The Dream of a Normal Death.wav" WAVE TRACK 14 AUDIO TITLE "The Dream of a Normal Death" PERFORMER "Murray Gold and the BBC National Orchestra of Wales" INDEX 01 00:00:00FILE "15 - Murray Gold and the BBC National Orchestra of Wales - The Doctor Forever.wav" WAVE TRACK 15 AUDIO TITLE "The Doctor Forever" PERFORMER "Murray Gold and the BBC National Orchestra of Wales" INDEX 01 00:00:00FILE "16 - Murray Gold and the BBC National Orchestra of Wales - Blink (Suite).wav" WAVE TRACK 16 AUDIO TITLE "Blink (Suite)" PERFORMER "Murray Gold and the BBC National Orchestra of Wales" INDEX 01 00:00:00FILE "17 - Murray Gold and the BBC National Orchestra of Wales - The Runaway Bride.wav" WAVE TRACK 17 AUDIO TITLE "The Runaway Bride" PERFORMER "Murray Gold and the BBC National Orchestra of Wales" INDEX 01 00:00:00FILE "18 - Murray Gold and the BBC National Orchestra of Wales - After the Chase.wav" WAVE TRACK 18 AUDIO TITLE "After the Chase" PERFORMER "Murray Gold and the BBC National Orchestra of Wales" INDEX 01 00:00:00FILE "19 - Murray Gold and the BBC National Orchestra of Wales - The Futurekind.wav" WAVE TRACK 19 AUDIO TITLE "The Futurekind" PERFORMER "Murray Gold and the BBC National Orchestra of Wales" INDEX 01 00:00:00FILE "20 - Murray Gold and the BBC National Orchestra of Wales - Yana (Excerpt).wav" WAVE TRACK 20 AUDIO TITLE "Yana (Excerpt)" PERFORMER "Murray Gold and the BBC National Orchestra of Wales" INDEX 01 00:00:00FILE "21 - Murray Gold and the BBC National Orchestra of Wales - The Master Vainglorious.wav" WAVE TRACK 21 AUDIO TITLE "The Master Vainglorious" PERFORMER "Murray Gold and the BBC National Orchestra of Wales" INDEX 01 00:00:00FILE "22 - Murray Gold and the BBC National Orchestra of Wales - Martha''s Quest.wav" WAVE TRACK 22 AUDIO TITLE "Martha''s Quest" PERFORMER "Murray Gold and the BBC National Orchestra of Wales" INDEX 01 00:00:00FILE "23 - Murray Gold and the BBC National Orchestra of Wales - This is Gallifrey- Our Childhood, Our Home.wav" WAVE TRACK 23 AUDIO TITLE "This is Gallifrey: Our Childhood, Our Home" PERFORMER "Murray Gold and the BBC National Orchestra of Wales" INDEX 01 00:00:00FILE "24 - Murray Gold and the BBC National Orchestra of Wales - Martha Triumphant.wav" WAVE TRACK 24 AUDIO TITLE "Martha Triumphant" PERFORMER "Murray Gold and the BBC National Orchestra of Wales" INDEX 01 00:00:00FILE "25 - Murray Gold and the BBC National Orchestra of Wales - Donna''s Theme.wav" WAVE TRACK 25 AUDIO TITLE "Donna''s Theme" PERFORMER "Murray Gold and the BBC National Orchestra of Wales" INDEX 01 00:00:00FILE "26 - Murray Gold and the BBC National Orchestra of Wales - The Stowaway (performed by Yamit Mamo).wav" WAVE TRACK 26 AUDIO TITLE "The Stowaway (performed by Yamit Mamo)" PERFORMER "Murray Gold and the BBC National Orchestra of Wales" INDEX 01 00:00:00FILE "27 - Murray Gold and the BBC National Orchestra of Wales - The Master Tape.wav" WAVE TRACK 27 AUDIO TITLE "The Master Tape" PERFORMER "Murray Gold and the BBC National Orchestra of Wales" INDEX 01 00:00:00FILE "28 - Murray Gold and the BBC National Orchestra of Wales - Abide With Me.wav" WAVE TRACK 28 AUDIO TITLE "Abide With Me" PERFORMER "Murray Gold and the BBC National Orchestra of Wales" INDEX 01 00:00:00
Продолжительность: 01:16:38
01. Doctor Who Series Four Opening Theme [00:45]
02. A Noble Girl About Town [02:12]
03. Life Among the Distant Stars [02:28]
04. Corridors and Fire Escape [01:13]
05. The Sybilline Sisterhood [01:53]
06. Songs of Captivity and Freedom [04:03]
07. UNIT Rocks [01:11]
08. The Doctor''s Daughter [01:37]
09. The Source [03:20]
10. The Unicorn and the Wasp [03:09]
11. The Doctor''s Theme Series 4 [02:45]
12. Voyage of the Damned Suite [10:21]
13. The Girl With No Name [02:45]
14. The Song of Song [02:13]
15. All in the Mind [01:16]
16. Silence in the Library [02:56]
17. The Greatest Story Never Told [06:16]
18. Midnight [03:07]
19. Turn Left [02:21]
20. A Dazzling End [02:14]
21. The Rueful Fate of Donna Noble [02:44]
22. Davros [02:03]
23. The Dark and Endless Dalek Night [03:43]
24. A Pressing Need to Save the World [04:50]
25. Hanging on the Tablaphone [01:04]
26. Song of Freedom [02:51]
27. Doctor Who Series Four Closing Credits [01:07]
Exact Audio Copy V0.99 prebeta 5 from 4. May 2009

EAC extraction logfile from 10. December 2009, 23:17

BBC National Orchestra of Wales\Murray Gold / Doctor Who Season Four

Used drive : ATAPI DVD D DH16D2P Adapter: 0 ID: 0

Read mode : SecureUtilize accurate stream : YesDefeat audio cache : YesMake use of C2 pointers : No

Read offset correction : 6Overread into Lead-In and Lead-Out : NoFill up missing offset samples with silence : YesDelete leading and trailing silent blocks : NoNull samples used in CRC calculations : YesUsed interface : Native Win32 interface for Win NT & 2000Gap handling : Appended to previous track

Used output format : User Defined EncoderSelected bitrate : 128 kBit/sQuality : HighAdd ID3 tag : NoCommand line compressor : C:\Program Files (x86)\Exact Audio Copy\Flac\flac.exeAdditional command line options : -V -8 -T "artist=%a" -T "title=%t" -T "album=%g" -T "date=%y" -T "tracknumber=%n" -T "genre=%m" %s

TOC of the extracted CD

Track | Start | Length | Start sector | End sector --------------------------------------------------------- 1 | 0:00.00 | 0:45.44 | 0 | 3418 2 | 0:45.44 | 2:12.28 | 3419 | 13346 3 | 2:57.72 | 2:28.42 | 13347 | 24488 4 | 5:26.39 | 1:13.00 | 24489 | 29963 5 | 6:39.39 | 1:53.00 | 29964 | 38438 6 | 8:32.39 | 4:03.04 | 38439 | 56667 7 | 12:35.43 | 1:11.00 | 56668 | 61992 8 | 13:46.43 | 1:37.67 | 61993 | 69334 9 | 15:24.35 | 3:20.43 | 69335 | 84377 10 | 18:45.03 | 3:09.65 | 84378 | 98617 11 | 21:54.68 | 2:45.40 | 98618 | 111032 12 | 24:40.33 | 10:21.26 | 111033 | 157633 13 | 35:01.59 | 2:45.00 | 157634 | 170008 14 | 37:46.59 | 2:13.68 | 170009 | 180051 15 | 40:00.52 | 1:16.65 | 180052 | 185816 16 | 41:17.42 | 2:56.13 | 185817 | 199029 17 | 44:13.55 | 6:16.52 | 199030 | 227281 18 | 50:30.32 | 3:07.00 | 227282 | 241306 19 | 53:37.32 | 2:21.00 | 241307 | 251881 20 | 55:58.32 | 2:14.58 | 251882 | 261989 21 | 58:13.15 | 2:44.22 | 261990 | 274311 22 | 60:57.37 | 2:03.49 | 274312 | 283585 23 | 63:01.11 | 3:43.36 | 283586 | 300346 24 | 66:44.47 | 4:50.60 | 300347 | 322156 25 | 71:35.32 | 1:04.67 | 322157 | 327023 26 | 72:40.24 | 2:51.44 | 327024 | 339892 27 | 75:31.68 | 1:07.00 | 339893 | 344917

Track 1

Filename D:\What.cd\Doctor Who - Series 4 - Original Television Soundtrack [FLAC]\01 - Doctor Who Season Four Opening Credits.wav

Pre-gap length 0:00:02.00

Peak level 96.6 % Track quality 100.0 % Test CRC C57ED6F0 Copy CRC C57ED6F0 Accurately ripped (confidence 13) [A69F8927] Copy OK

Track 2

Filename D:\What.cd\Doctor Who - Series 4 - Original Television Soundtrack [FLAC]\02 - A Noble Girl About Town.wav

Peak level 96.6 % Track quality 100.0 % Test CRC 06B09FAA Copy CRC 06B09FAA Accurately ripped (confidence 13) [8CC61FF3] Copy OK

Track 3

Filename D:\What.cd\Doctor Who - Series 4 - Original Television Soundtrack [FLAC]\03 - Life Among The Distant Stars.wav

Peak level 96.6 % Track quality 100.0 % Test CRC 26CEB6DB Copy CRC 26CEB6DB Accurately ripped (confidence 13) [88704E71] Copy OK

Track 4

Filename D:\What.cd\Doctor Who - Series 4 - Original Television Soundtrack [FLAC]\04 - Corridors and Fire Escapes.wav

Peak level 96.6 % Track quality 100.0 % Test CRC 4DD41AD0 Copy CRC 4DD41AD0 Accurately ripped (confidence 13) [DF5D45CB] Copy OK

Track 5

Filename D:\What.cd\Doctor Who - Series 4 - Original Television Soundtrack [FLAC]\05 - The Sybilline Sisterhood.wav

Peak level 96.6 % Track quality 100.0 % Test CRC A74A5378 Copy CRC A74A5378 Accurately ripped (confidence 13) [7430FCF6] Copy OK

Track 6

Filename D:\What.cd\Doctor Who - Series 4 - Original Television Soundtrack [FLAC]\06 - Songs of Captivity and Freedom.wav

Peak level 96.6 % Track quality 99.9 % Test CRC 8AAC52C3 Copy CRC 8AAC52C3 Accurately ripped (confidence 14) [738F9A3F] Copy OK

Track 7

Filename D:\What.cd\Doctor Who - Series 4 - Original Television Soundtrack [FLAC]\07 - Unit Rocks.wav

Peak level 96.6 % Track quality 100.0 % Test CRC 1C745269 Copy CRC 1C745269 Accurately ripped (confidence 13) [F8622AE5] Copy OK

Track 8

Filename D:\What.cd\Doctor Who - Series 4 - Original Television Soundtrack [FLAC]\08 - The Doctor''s Daughter.wav

Peak level 96.6 % Track quality 100.0 % Test CRC 9C6CA40E Copy CRC 9C6CA40E Accurately ripped (confidence 13) [D8CB3439] Copy OK

Track 9

Filename D:\What.cd\Doctor Who - Series 4 - Original Television Soundtrack [FLAC]\09 - The Source.wav

Peak level 96.5 % Track quality 99.9 % Test CRC FC28F436 Copy CRC FC28F436 Accurately ripped (confidence 13) [D86CDB33] Copy OK

Track 10

Filename D:\What.cd\Doctor Who - Series 4 - Original Television Soundtrack [FLAC]\10 - The Unicorn and the Wasp.wav

Peak level 96.6 % Track quality 100.0 % Test CRC C6D82585 Copy CRC C6D82585 Accurately ripped (confidence 13) [AA5D8F79] Copy OK

Track 11

Filename D:\What.cd\Doctor Who - Series 4 - Original Television Soundtrack [FLAC]\11 - The Doctor''s Theme Season Four.wav

Peak level 96.6 % Track quality 100.0 % Test CRC 1A7442A1 Copy CRC 1A7442A1 Accurately ripped (confidence 14) [9C5A9725] Copy OK

Track 12

Filename D:\What.cd\Doctor Who - Series 4 - Original Television Soundtrack [FLAC]\12 - Voyage of the Damned Suite.wav

Peak level 96.6 % Track quality 100.0 % Test CRC A90F8571 Copy CRC A90F8571 Accurately ripped (confidence 13) [2D6A5ECA] Copy OK

Track 13

Filename D:\What.cd\Doctor Who - Series 4 - Original Television Soundtrack [FLAC]\13 - The Girl With No Name.wav

Peak level 96.6 % Track quality 100.0 % Test CRC 6C5DFF55 Copy CRC 6C5DFF55 Accurately ripped (confidence 13) [359F5267] Copy OK

Track 14

Filename D:\What.cd\Doctor Who - Series 4 - Original Television Soundtrack [FLAC]\14 - The Song of Song.wav

Peak level 96.6 % Track quality 100.0 % Test CRC C4DE38E8 Copy CRC C4DE38E8 Accurately ripped (confidence 13) [6E325AAB] Copy OK

Track 15

Filename D:\What.cd\Doctor Who - Series 4 - Original Television Soundtrack [FLAC]\15 - All In The Mind.wav

Peak level 48.4 % Track quality 100.0 % Test CRC A8367004 Copy CRC A8367004 Accurately ripped (confidence 13) [E61F3CB5] Copy OK

Track 16

Filename D:\What.cd\Doctor Who - Series 4 - Original Television Soundtrack [FLAC]\16 - Silence In The Library.wav

Peak level 96.6 % Track quality 100.0 % Test CRC 23B93EB1 Copy CRC 23B93EB1 Accurately ripped (confidence 13) [79C35A1F] Copy OK

Track 17

Filename D:\What.cd\Doctor Who - Series 4 - Original Television Soundtrack [FLAC]\17 - The Greatest Story Never Told.wav

Peak level 96.6 % Track quality 100.0 % Test CRC 24E68945 Copy CRC 24E68945 Accurately ripped (confidence 13) [464B3E4E] Copy OK

Track 18

Filename D:\What.cd\Doctor Who - Series 4 - Original Television Soundtrack [FLAC]\18 - Midnight.wav

Peak level 96.6 % Track quality 100.0 % Test CRC F9CB6E5F Copy CRC F9CB6E5F Accurately ripped (confidence 13) [0EEEE27E] Copy OK

Track 19

Filename D:\What.cd\Doctor Who - Series 4 - Original Television Soundtrack [FLAC]\19 - Turn Left.wav

Peak level 77.9 % Track quality 100.0 % Test CRC 84A08E4A Copy CRC 84A08E4A Accurately ripped (confidence 14) [E8599FDB] Copy OK

Track 20

Filename D:\What.cd\Doctor Who - Series 4 - Original Television Soundtrack [FLAC]\20 - A Dazzling End.wav

Peak level 96.6 % Track quality 100.0 % Test CRC 5759D1A1 Copy CRC 5759D1A1 Accurately ripped (confidence 13) [01E93636] Copy OK

Track 21

Filename D:\What.cd\Doctor Who - Series 4 - Original Television Soundtrack [FLAC]\21 - The Rueful Fate of Donna Noble.wav

Peak level 96.6 % Track quality 100.0 % Test CRC 2417FB10 Copy CRC 2417FB10 Accurately ripped (confidence 13) [5AD4F851] Copy OK

Track 22

Filename D:\What.cd\Doctor Who - Series 4 - Original Television Soundtrack [FLAC]\22 - Davros.wav

Peak level 96.6 % Track quality 100.0 % Test CRC 7ABDA4BE Copy CRC 7ABDA4BE Accurately ripped (confidence 13) [68E2EDD3] Copy OK

Track 23

Filename D:\What.cd\Doctor Who - Series 4 - Original Television Soundtrack [FLAC]\23 - The Dark and Endless Dalek Night.wav

Peak level 96.6 % Track quality 99.9 % Test CRC F5D8E84A Copy CRC F5D8E84A Accurately ripped (confidence 13) [ABF2740B] Copy OK

Track 24

Filename D:\What.cd\Doctor Who - Series 4 - Original Television Soundtrack [FLAC]\24 - A Pressing Need to Save The World.wav

Peak level 96.6 % Track quality 100.0 % Test CRC 41AA3423 Copy CRC 41AA3423 Accurately ripped (confidence 13) [41AECB6A] Copy OK

Track 25

Filename D:\What.cd\Doctor Who - Series 4 - Original Television Soundtrack [FLAC]\25 - Hanging On The Tablaphone.wav

Peak level 96.6 % Track quality 100.0 % Test CRC 37CBC178 Copy CRC 37CBC178 Accurately ripped (confidence 13) [6643516B] Copy OK

Track 26

Filename D:\What.cd\Doctor Who - Series 4 - Original Television Soundtrack [FLAC]\26 - Song of Freedom.wav

Peak level 96.6 % Track quality 100.0 % Test CRC 19C1C3ED Copy CRC 19C1C3ED Accurately ripped (confidence 14) [73BA6447] Copy OK

Track 27

Filename D:\What.cd\Doctor Who - Series 4 - Original Television Soundtrack [FLAC]\27 - Doctor Who Season Four Closing Credits.wav

Peak level 96.6 % Track quality 100.0 % Test CRC 5341A2E3 Copy CRC 5341A2E3 Accurately ripped (confidence 13) [5651AE46] Copy OK

All tracks accurately ripped

No errors occurred

End of status report
REM GENRE SoundtrackREM DATE 2008REM DISCID 8011F61BREM COMMENT "ExactAudioCopy v0.99pb5"PERFORMER "Murray Gold"TITLE "Doctor Who - Original Television Soundtrack - Series 4"FILE "01 - Doctor Who Series Four Opening Theme.wav" WAVE TRACK 01 AUDIO TITLE "Doctor Who Series Four Opening Theme" PERFORMER "Murray Gold" INDEX 01 00:00:00FILE "02 - A Noble Girl About Town.wav" WAVE TRACK 02 AUDIO TITLE "A Noble Girl About Town" PERFORMER "Murray Gold" INDEX 01 00:00:00FILE "03 - Life Among the Distant Stars.wav" WAVE TRACK 03 AUDIO TITLE "Life Among the Distant Stars" PERFORMER "Murray Gold" INDEX 01 00:00:00FILE "04 - Corridors and Fire Escapes.wav" WAVE TRACK 04 AUDIO TITLE "Corridors and Fire Escapes" PERFORMER "Murray Gold" INDEX 01 00:00:00FILE "05 - The Sybilline Sisterhood.wav" WAVE TRACK 05 AUDIO TITLE "The Sybilline Sisterhood" PERFORMER "Murray Gold" INDEX 01 00:00:00FILE "06 - Songs of Captivity and Freedom.wav" WAVE TRACK 06 AUDIO TITLE "Songs of Captivity and Freedom" PERFORMER "Murray Gold" INDEX 01 00:00:00FILE "07 - UNIT Rocks.wav" WAVE TRACK 07 AUDIO TITLE "UNIT Rocks" PERFORMER "Murray Gold" INDEX 01 00:00:00FILE "08 - The Doctor''s Daughter.wav" WAVE TRACK 08 AUDIO TITLE "The Doctor''s Daughter" PERFORMER "Murray Gold" INDEX 01 00:00:00FILE "09 - The Source.wav" WAVE TRACK 09 AUDIO TITLE "The Source" PERFORMER "Murray Gold" INDEX 01 00:00:00FILE "10 - The Unicorn and the Wasp.wav" WAVE TRACK 10 AUDIO TITLE "The Unicorn and the Wasp" PERFORMER "Murray Gold" INDEX 01 00:00:00FILE "11 - The Doctor''s Theme Series 4.wav" WAVE TRACK 11 AUDIO TITLE "The Doctor''s Theme Series 4" PERFORMER "Murray Gold" INDEX 01 00:00:00FILE "12 - Voyage of the Damned Suite.wav" WAVE TRACK 12 AUDIO TITLE "Voyage of the Damned Suite" PERFORMER "Murray Gold" INDEX 01 00:00:00FILE "13 - The Girl With No Name.wav" WAVE TRACK 13 AUDIO TITLE "The Girl With No Name" PERFORMER "Murray Gold" INDEX 01 00:00:00FILE "14 - The Song of Song.wav" WAVE TRACK 14 AUDIO TITLE "The Song of Song" PERFORMER "Murray Gold" INDEX 01 00:00:00FILE "15 - All in the Mind.wav" WAVE TRACK 15 AUDIO TITLE "All in the Mind" PERFORMER "Murray Gold" INDEX 01 00:00:00FILE "16 - Silence in the Library.wav" WAVE TRACK 16 AUDIO TITLE "Silence in the Library" PERFORMER "Murray Gold" INDEX 01 00:00:00FILE "17 - The Greatest Story Never Told.wav" WAVE TRACK 17 AUDIO TITLE "The Greatest Story Never Told" PERFORMER "Murray Gold" INDEX 01 00:00:00FILE "18 - Midnight.wav" WAVE TRACK 18 AUDIO TITLE "Midnight" PERFORMER "Murray Gold" INDEX 01 00:00:00FILE "19 - Turn Left.wav" WAVE TRACK 19 AUDIO TITLE "Turn Left" PERFORMER "Murray Gold" INDEX 01 00:00:00FILE "20 - A Dazzling End.wav" WAVE TRACK 20 AUDIO TITLE "A Dazzling End" PERFORMER "Murray Gold" INDEX 01 00:00:00FILE "21 - The Rueful Fate of Donna Noble.wav" WAVE TRACK 21 AUDIO TITLE "The Rueful Fate of Donna Noble" PERFORMER "Murray Gold" INDEX 01 00:00:00FILE "22 - Davros.wav" WAVE TRACK 22 AUDIO TITLE "Davros" PERFORMER "Murray Gold" INDEX 01 00:00:00FILE "23 - The Dark and Endless Dalek Night.wav" WAVE TRACK 23 AUDIO TITLE "The Dark and Endless Dalek Night" PERFORMER "Murray Gold" INDEX 01 00:00:00FILE "24 - A Pressing Need to Save the World.wav" WAVE TRACK 24 AUDIO TITLE "A Pressing Need to Save the World" PERFORMER "Murray Gold" INDEX 01 00:00:00FILE "25 - Hanging On The Tablaphone.wav" WAVE TRACK 25 AUDIO TITLE "Hanging On The Tablaphone" PERFORMER "Murray Gold" INDEX 01 00:00:00FILE "26 - Song of Freedom.wav" WAVE TRACK 26 AUDIO TITLE "Song of Freedom" PERFORMER "Murray Gold" INDEX 01 00:00:00FILE "27 - Doctor Who Series Four Closing Credits.wav" WAVE TRACK 27 AUDIO TITLE "Doctor Who Series Four Closing Credits" PERFORMER "Murray Gold" INDEX 01 00:00:00
Продолжительность: 00:52:12
01. Vale [01:37]

THE NEXT DOCTOR

02. A Victorian Christmas [01:34]
03. Not the Doctor [03:19]
04. A Bit of a Drag [01:23]
05. In the Sea of Memory [00:44]
06. Hidden in the Closet [01:51]
07. The Wonder of Balloons [01:23]
08. A Forceful Intelligence [01:12]
09. The Greats of Past Time [05:04]
10. The March of the Cybermen [04:13]
11. Goodbyes [05:04]

PLANET OF THE DEAD

12. A Disturbance in the Night [00:38]
13. The Cat Burglar [01:30]
14. Alone in the Desert [03:19]
15. A Special Sort of Bus [02:19]
16. Stirring in the Sands [01:58]
17. Lithuania [01:48]

THE WATERS OF MARS

18. Letter to Earth [02:15]
19. By Water Borne [02:23]
20. The Fate of Little Adelaide [05:05]
21. Altering Lives [03:23]
Exact Audio Copy V0.99 prebeta 4 from 23. January 2008

EAC extraction logfile from 4. October 2010, 13:13

Murray Gold / Doctor Who: Series 4: The Specials (CD1)

Used drive : PIONEER DVD-RW DVR-115D Adapter: 0 ID: 0

Read mode : SecureUtilize accurate stream : YesDefeat audio cache : YesMake use of C2 pointers : No

Read offset correction : 48Overread into Lead-In and Lead-Out : NoFill up missing offset samples with silence : YesDelete leading and trailing silent blocks : NoNull samples used in CRC calculations : YesUsed interface : Native Win32 interface for Win NT & 2000Gap handling : Appended to previous track

Used output format : User Defined EncoderSelected bitrate : 768 kBit/sQuality : HighAdd ID3 tag : NoCommand line compressor : C:\Program Files\Exact Audio Copy\FLAC\FLAC.EXEAdditional command line options : -6 -V -T "ARTIST=%a" -T "TITLE=%t" -T "ALBUM=%g" -T "DATE=%y" -T "TRACKNUMBER=%n" -T "GENRE=%m" -T "COMMENT=%e" %s -o %d

TOC of the extracted CD

Track | Start | Length | Start sector | End sector --------------------------------------------------------- 1 | 0:00.00 | 1:37.28 | 0 | 7302 2 | 1:37.28 | 1:34.56 | 7303 | 14408 3 | 3:12.09 | 3:19.02 | 14409 | 29335 4 | 6:31.11 | 1:23.40 | 29336 | 35600 5 | 7:54.51 | 0:44.63 | 35601 | 38963 6 | 8:39.39 | 1:51.60 | 38964 | 47348 7 | 10:31.24 | 1:23.05 | 47349 | 53578 8 | 11:54.29 | 1:12.50 | 53579 | 59028 9 | 13:07.04 | 5:04.35 | 59029 | 81863 10 | 18:11.39 | 4:13.61 | 81864 | 100899 11 | 22:25.25 | 5:04.50 | 100900 | 123749 12 | 27:30.00 | 0:38.12 | 123750 | 126611 13 | 28:08.12 | 1:30.16 | 126612 | 133377 14 | 29:38.28 | 3:19.18 | 133378 | 148320 15 | 32:57.46 | 2:19.58 | 148321 | 158803 16 | 35:17.29 | 1:58.25 | 158804 | 167678 17 | 37:15.54 | 1:48.47 | 167679 | 175825 18 | 39:04.26 | 2:15.39 | 175826 | 185989 19 | 41:19.65 | 2:23.27 | 185990 | 196741 20 | 43:43.17 | 5:05.11 | 196742 | 219627 21 | 48:48.28 | 3:23.57 | 219628 | 234909

Track 1

Filename g:\EAC Ripping\Murray Gold - Doctor Who- Series 4- The Specials (CD1)\01. Vale.wav

Pre-gap length 0:00:02.00

Peak level 13.3 % Track quality 100.0 % Test CRC F7F5D1F4 Copy CRC F7F5D1F4 Track not present in AccurateRip database Copy OK

Track 2

Filename g:\EAC Ripping\Murray Gold - Doctor Who- Series 4- The Specials (CD1)\02. The Next Doctor- A Victorian Christmas.wav

Peak level 96.7 % Track quality 100.0 % Test CRC 0533CD75 Copy CRC 0533CD75 Track not present in AccurateRip database Copy OK

Track 3

Filename g:\EAC Ripping\Murray Gold - Doctor Who- Series 4- The Specials (CD1)\03. The Next Doctor- Not the Doctor.wav

Peak level 96.7 % Track quality 100.0 % Test CRC 3AE17344 Copy CRC 3AE17344 Track not present in AccurateRip database Copy OK

Track 4

Filename g:\EAC Ripping\Murray Gold - Doctor Who- Series 4- The Specials (CD1)\04. The Next Doctor- A Bit of a Drag.wav

Peak level 96.7 % Track quality 100.0 % Test CRC 59FFFB7D Copy CRC 59FFFB7D Track not present in AccurateRip database Copy OK

Track 5

Filename g:\EAC Ripping\Murray Gold - Doctor Who- Series 4- The Specials (CD1)\05. The Next Doctor- In the Sea of Memory.wav

Peak level 96.5 % Track quality 99.7 % Test CRC 932D4C75 Copy CRC 932D4C75 Track not present in AccurateRip database Copy OK

Track 6

Filename g:\EAC Ripping\Murray Gold - Doctor Who- Series 4- The Specials (CD1)\06. The Next Doctor- Hidden in the Closet.wav

Peak level 96.7 % Track quality 100.0 % Test CRC BCBF625E Copy CRC BCBF625E Track not present in AccurateRip database Copy OK

Track 7

Filename g:\EAC Ripping\Murray Gold - Doctor Who- Series 4- The Specials (CD1)\07. The Next Doctor- The Wonder of Balloons.wav

Peak level 85.7 % Track quality 100.0 % Test CRC 0A8C89FD Copy CRC 0A8C89FD Track not present in AccurateRip database Copy OK

Track 8

Filename g:\EAC Ripping\Murray Gold - Doctor Who- Series 4- The Specials (CD1)\08. The Next Doctor- A Forceful Intelligence.wav

Peak level 96.7 % Track quality 100.0 % Test CRC 797D8AC7 Copy CRC 797D8AC7 Track not present in AccurateRip database Copy OK

Track 9

Filename g:\EAC Ripping\Murray Gold - Doctor Who- Series 4- The Specials (CD1)\09. The Next Doctor- The Greats of Past Time.wav

Peak level 96.7 % Track quality 100.0 % Test CRC 1B19CC9E Copy CRC 1B19CC9E Track not present in AccurateRip database Copy OK

Track 10

Filename g:\EAC Ripping\Murray Gold - Doctor Who- Series 4- The Specials (CD1)\10. The Next Doctor- The March of the Cybermen.wav

Peak level 96.7 % Track quality 100.0 % Test CRC ED42283B Copy CRC ED42283B Track not present in AccurateRip database Copy OK

Track 11

Filename g:\EAC Ripping\Murray Gold - Doctor Who- Series 4- The Specials (CD1)\11. The Next Doctor- Goodbyes.wav

Peak level 96.7 % Track quality 100.0 % Test CRC A0CBAC54 Copy CRC A0CBAC54 Track not present in AccurateRip database Copy OK

Track 12

Filename g:\EAC Ripping\Murray Gold - Doctor Who- Series 4- The Specials (CD1)\12. Planet of the Dead- A Disturbance in the Night.wav

Peak level 96.7 % Track quality 99.7 % Test CRC C387234C Copy CRC C387234C Track not present in AccurateRip database Copy OK

Track 13

Filename g:\EAC Ripping\Murray Gold - Doctor Who- Series 4- The Specials (CD1)\13. Planet of the Dead- The Cat Burglar.wav

Peak level 96.6 % Track quality 100.0 % Test CRC 50A4439F Copy CRC 50A4439F Track not present in AccurateRip database Copy OK

Track 14

Filename g:\EAC Ripping\Murray Gold - Doctor Who- Series 4- The Specials (CD1)\14. Planet of the Dead- Alone in the Desert.wav

Peak level 67.9 % Track quality 99.9 % Test CRC 3E0A507D Copy CRC 3E0A507D Track not present in AccurateRip database Copy OK

Track 15

Filename g:\EAC Ripping\Murray Gold - Doctor Who- Series 4- The Specials (CD1)\15. Planet of the Dead- A Special Sort of Bus.wav

Peak level 96.7 % Track quality 100.0 % Test CRC 17FFB24B Copy CRC 17FFB24B Track not present in AccurateRip database Copy OK

Track 16

Filename g:\EAC Ripping\Murray Gold - Doctor Who- Series 4- The Specials (CD1)\16. Planet of the Dead- Stirring in the Sands.wav

Peak level 96.7 % Track quality 100.0 % Test CRC F3385745 Copy CRC F3385745 Track not present in AccurateRip database Copy OK

Track 17

Filename g:\EAC Ripping\Murray Gold - Doctor Who- Series 4- The Specials (CD1)\17. Planet of the Dead- Lithuania.wav

Peak level 96.7 % Track quality 100.0 % Test CRC BA5BD860 Copy CRC BA5BD860 Track not present in AccurateRip database Copy OK

Track 18

Filename g:\EAC Ripping\Murray Gold - Doctor Who- Series 4- The Specials (CD1)\18. The Waters of Mars- Letter to Earth.wav

Peak level 96.7 % Track quality 100.0 % Test CRC 7112FA67 Copy CRC 7112FA67 Track not present in AccurateRip database Copy OK

Track 19

Filename g:\EAC Ripping\Murray Gold - Doctor Who- Series 4- The Specials (CD1)\19. The Waters of Mars- By Water Borne.wav

Peak level 96.7 % Track quality 100.0 % Test CRC 52E87619 Copy CRC 52E87619 Track not present in AccurateRip database Copy OK

Track 20

Filename g:\EAC Ripping\Murray Gold - Doctor Who- Series 4- The Specials (CD1)\20. The Waters of Mars- The Fate of Little Adelaide.wav

Peak level 88.7 % Track quality 99.9 % Test CRC 07B325F9 Copy CRC 07B325F9 Track not present in AccurateRip database Copy OK

Track 21

Filename g:\EAC Ripping\Murray Gold - Doctor Who- Series 4- The Specials (CD1)\21. The Waters of Mars- Altering Lives.wav

Peak level 90.3 % Track quality 100.0 % Test CRC DF15BFF3 Copy CRC DF15BFF3 Track not present in AccurateRip database Copy OK

None of the tracks are present in the AccurateRip database

No errors occurred

End of status report
REM GENRE SoundtrackREM DATE 2010REM DISCID 370C3C15REM COMMENT "ExactAudioCopy v0.99pb4"PERFORMER "Murray Gold"TITLE "Doctor Who: Series 4: The Specials (CD1)"FILE "01. Vale.wav" WAVE TRACK 01 AUDIO TITLE "Vale" PERFORMER "Murray Gold" ISRC GBAJC1000216 FLAGS DCP INDEX 01 00:00:00FILE "02. The Next Doctor- A Victorian Christmas.wav" WAVE TRACK 02 AUDIO TITLE "The Next Doctor: A Victorian Christmas" PERFORMER "Murray Gold" ISRC GBAJC1000217 FLAGS DCP INDEX 01 00:00:00FILE "03. The Next Doctor- Not the Doctor.wav" WAVE TRACK 03 AUDIO TITLE "The Next Doctor: Not the Doctor" PERFORMER "Murray Gold" ISRC GBAJC1000218 FLAGS DCP INDEX 01 00:00:00FILE "04. The Next Doctor- A Bit of a Drag.wav" WAVE TRACK 04 AUDIO TITLE "The Next Doctor: A Bit of a Drag" PERFORMER "Murray Gold" ISRC GBAJC1000219 FLAGS DCP INDEX 01 00:00:00FILE "05. The Next Doctor- In the Sea of Memory.wav" WAVE TRACK 05 AUDIO TITLE "The Next Doctor: In the Sea of Memory" PERFORMER "Murray Gold" ISRC GBAJC1000220 FLAGS DCP INDEX 01 00:00:00FILE "06. The Next Doctor- Hidden in the Closet.wav" WAVE TRACK 06 AUDIO TITLE "The Next Doctor: Hidden in the Closet" PERFORMER "Murray Gold" ISRC GBAJC1000221 FLAGS DCP INDEX 01 00:00:00FILE "07. The Next Doctor- The Wonder of Balloons.wav" WAVE TRACK 07 AUDIO TITLE "The Next Doctor: The Wonder of Balloons" PERFORMER "Murray Gold" ISRC GBAJC1000222 FLAGS DCP INDEX 01 00:00:00FILE "08. The Next Doctor- A Forceful Intelligence.wav" WAVE TRACK 08 AUDIO TITLE "The Next Doctor: A Forceful Intelligence" PERFORMER "Murray Gold" ISRC GBAJC1000223 FLAGS DCP INDEX 01 00:00:00FILE "09. The Next Doctor- The Greats of Past Time.wav" WAVE TRACK 09 AUDIO TITLE "The Next Doctor: The Greats of Past Time" PERFORMER "Murray Gold" ISRC GBAJC1000224 FLAGS DCP INDEX 01 00:00:00FILE "10. The Next Doctor- The March of the Cybermen.wav" WAVE TRACK 10 AUDIO TITLE "The Next Doctor: The March of the Cybermen" PERFORMER "Murray Gold" ISRC GBAJC1000225 FLAGS DCP INDEX 01 00:00:00FILE "11. The Next Doctor- Goodbyes.wav" WAVE TRACK 11 AUDIO TITLE "The Next Doctor: Goodbyes" PERFORMER "Murray Gold" ISRC GBAJC1000226 FLAGS DCP INDEX 01 00:00:00FILE "12. Planet of the Dead- A Disturbance in the Night.wav" WAVE TRACK 12 AUDIO TITLE "Planet of the Dead: A Disturbance in the Night" PERFORMER "Murray Gold" ISRC GBAJC1000227 FLAGS DCP INDEX 01 00:00:00FILE "13. Planet of the Dead- The Cat Burglar.wav" WAVE TRACK 13 AUDIO TITLE "Planet of the Dead: The Cat Burglar" PERFORMER "Murray Gold" ISRC GBAJC1000228 FLAGS DCP INDEX 01 00:00:00FILE "14. Planet of the Dead- Alone in the Desert.wav" WAVE TRACK 14 AUDIO TITLE "Planet of the Dead: Alone in the Desert" PERFORMER "Murray Gold" ISRC GBAJC1000229 FLAGS DCP INDEX 01 00:00:00FILE "15. Planet of the Dead- A Special Sort of Bus.wav" WAVE TRACK 15 AUDIO TITLE "Planet of the Dead: A Special Sort of Bus" PERFORMER "Murray Gold" ISRC GBAJC1000230 FLAGS DCP INDEX 01 00:00:00FILE "16. Planet of the Dead- Stirring in the Sands.wav" WAVE TRACK 16 AUDIO TITLE "Planet of the Dead: Stirring in the Sands" PERFORMER "Murray Gold" ISRC GBAJC1000231 FLAGS DCP INDEX 01 00:00:00FILE "17. Planet of the Dead- Lithuania.wav" WAVE TRACK 17 AUDIO TITLE "Planet of the Dead: Lithuania" PERFORMER "Murray Gold" ISRC GBAJC1000232 FLAGS DCP INDEX 01 00:00:00FILE "18. The Waters of Mars- Letter to Earth.wav" WAVE TRACK 18 AUDIO TITLE "The Waters of Mars: Letter to Earth" PERFORMER "Murray Gold" ISRC GBAJC1000233 FLAGS DCP INDEX 01 00:00:00FILE "19. The Waters of Mars- By Water Borne.wav" WAVE TRACK 19 AUDIO TITLE "The Waters of Mars: By Water Borne" PERFORMER "Murray Gold" ISRC GBAJC1000234 FLAGS DCP INDEX 01 00:00:00FILE "20. The Waters of Mars- The Fate of Little Adelaide.wav" WAVE TRACK 20 AUDIO TITLE "The Waters of Mars: The Fate of Little Adelaide" PERFORMER "Murray Gold" ISRC GBAJC1000235 FLAGS DCP INDEX 01 00:00:00FILE "21. The Waters of Mars- Altering Lives.wav" WAVE TRACK 21 AUDIO TITLE "The Waters of Mars: Altering Lives" PERFORMER "Murray Gold" ISRC GBAJC1000236 FLAGS DCP INDEX 01 00:00:00
Продолжительность: 01:04:19
01. We Shall Fare Well [01:26]
02. A Frosty Ood [02:50]
03. A Dream of Catastrophe [01:18]
04. All in the Balance [00:55]
05. A Ruined Gaol [01:22]
06. Wilf''s Wiggle [00:43]
07. Minnie Hooper [01:31]
08. The End Draws Near [03:46]
09. Gallifrey [02:32]
10. Final Days [01:43]
11. The Council of the Time [00:41]
12. The Master Suitelords [04:33]
13. The Ruined Childhood [03:27]
14. A Chaotic Escape [02:59]
15. The World Waits [05:18]
16. A Longing to Leave [01:18]
17. A Lot of Life Behind Us [04:20]
18. Dealing with the Menace [01:35]
19. Speeding to Earth [01:18]
20. The Time Lords'' Last Stand [03:27]
21. The Clouds Pass [01:53]
22. Four Knocks [04:04]
23. Song for Ten (reprise) [02:21]
24. Vale Decim [03:19]
25. Vale [04:20]
26. The New Doctor [01:07]
Exact Audio Copy V0.99 prebeta 4 from 23. January 2008

EAC extraction logfile from 4. October 2010, 13:45

Murray Gold / Doctor Who: Series 4: The Specials (CD2)

Used drive : PIONEER DVD-RW DVR-115D Adapter: 0 ID: 0

Read mode : SecureUtilize accurate stream : YesDefeat audio cache : YesMake use of C2 pointers : No

Read offset correction : 48Overread into Lead-In and Lead-Out : NoFill up missing offset samples with silence : YesDelete leading and trailing silent blocks : NoNull samples used in CRC calculations : YesUsed interface : Native Win32 interface for Win NT & 2000Gap handling : Appended to previous track

Used output format : User Defined EncoderSelected bitrate : 768 kBit/sQuality : HighAdd ID3 tag : NoCommand line compressor : C:\Program Files\Exact Audio Copy\FLAC\FLAC.EXEAdditional command line options : -6 -V -T "ARTIST=%a" -T "TITLE=%t" -T "ALBUM=%g" -T "DATE=%y" -T "TRACKNUMBER=%n" -T "GENRE=%m" -T "COMMENT=%e" %s -o %d

TOC of the extracted CD

Track | Start | Length | Start sector | End sector --------------------------------------------------------- 1 | 0:00.00 | 1:26.71 | 0 | 6520 2 | 1:26.71 | 2:50.74 | 6521 | 19344 3 | 4:17.70 | 1:18.58 | 19345 | 25252 4 | 5:36.53 | 0:55.62 | 25253 | 29439 5 | 6:32.40 | 1:22.12 | 29440 | 35601 6 | 7:54.52 | 0:43.47 | 35602 | 38873 7 | 8:38.24 | 1:31.55 | 38874 | 45753 8 | 10:10.04 | 3:46.53 | 45754 | 62756 9 | 13:56.57 | 2:32.18 | 62757 | 74174 10 | 16:29.00 | 1:43.69 | 74175 | 81968 11 | 18:12.69 | 0:41.64 | 81969 | 85107 12 | 18:54.58 | 4:33.46 | 85108 | 105628 13 | 23:28.29 | 3:27.07 | 105629 | 121160 14 | 26:55.36 | 2:59.20 | 121161 | 134605 15 | 29:54.56 | 5:18.55 | 134606 | 158510 16 | 35:13.36 | 1:18.08 | 158511 | 164368 17 | 36:31.44 | 4:20.25 | 164369 | 183893 18 | 40:51.69 | 1:35.49 | 183894 | 191067 19 | 42:27.43 | 1:18.15 | 191068 | 196932 20 | 43:45.58 | 3:27.00 | 196933 | 212457 21 | 47:12.58 | 1:53.20 | 212458 | 220952 22 | 49:06.03 | 4:04.25 | 220953 | 239277 23 | 53:10.28 | 2:21.70 | 239278 | 249922 24 | 55:32.23 | 3:19.22 | 249923 | 264869 25 | 58:51.45 | 4:20.12 | 264870 | 284381 26 | 63:11.57 | 1:07.68 | 284382 | 289474

Track 1

Filename g:\EAC Ripping\Murray Gold - Doctor Who- Series 4- The Specials (CD2)\01. The End of Time- We Shall Fare Well.wav

Pre-gap length 0:00:02.00

Peak level 64.9 % Track quality 100.0 % Test CRC 1E879E58 Copy CRC 1E879E58 Track not present in AccurateRip database Copy OK

Track 2

Filename g:\EAC Ripping\Murray Gold - Doctor Who- Series 4- The Specials (CD2)\02. The End of Time- A Frosty Ood.wav

Peak level 96.6 % Track quality 99.9 % Test CRC 311C41BB Copy CRC 311C41BB Track not present in AccurateRip database Copy OK

Track 3

Filename g:\EAC Ripping\Murray Gold - Doctor Who- Series 4- The Specials (CD2)\03. The End of Time- A Dream of Catastrophe.wav

Peak level 96.6 % Track quality 100.0 % Test CRC D320D236 Copy CRC D320D236 Track not present in AccurateRip database Copy OK

Track 4

Filename g:\EAC Ripping\Murray Gold - Doctor Who- Series 4- The Specials (CD2)\04. The End of Time- All in the Balance.wav

Peak level 96.7 % Track quality 100.0 % Test CRC B11CE3ED Copy CRC B11CE3ED Track not present in AccurateRip database Copy OK

Track 5

Filename g:\EAC Ripping\Murray Gold - Doctor Who- Series 4- The Specials (CD2)\05. The End of Time- A Ruined Gaol.wav

Peak level 96.7 % Track quality 100.0 % Test CRC 12A90AAC Copy CRC 12A90AAC Track not present in AccurateRip database Copy OK

Track 6

Filename g:\EAC Ripping\Murray Gold - Doctor Who- Series 4- The Specials (CD2)\06. The End of Time- Wilf''s Wiggle.wav

Peak level 96.6 % Track quality 100.0 % Test CRC 64E6FA6D Copy CRC 64E6FA6D Track not present in AccurateRip database Copy OK

Track 7

Filename g:\EAC Ripping\Murray Gold - Doctor Who- Series 4- The Specials (CD2)\07. The End of Time- Minnie Hooper.wav

Peak level 96.6 % Track quality 100.0 % Test CRC 89B9CC14 Copy CRC 89B9CC14 Track not present in AccurateRip database Copy OK

Track 8

Filename g:\EAC Ripping\Murray Gold - Doctor Who- Series 4- The Specials (CD2)\08. The End of Time- The End Draws Near.wav

Peak level 96.7 % Track quality 100.0 % Test CRC B613CA42 Copy CRC B613CA42 Track not present in AccurateRip database Copy OK

Track 9

Filename g:\EAC Ripping\Murray Gold - Doctor Who- Series 4- The Specials (CD2)\09. The End of Time- Gallifrey.wav

Peak level 95.5 % Track quality 100.0 % Test CRC FA4390CD Copy CRC FA4390CD Track not present in AccurateRip database Copy OK

Track 10

Filename g:\EAC Ripping\Murray Gold - Doctor Who- Series 4- The Specials (CD2)\10. The End of Time- Final Days.wav

Peak level 96.7 % Track quality 99.8 % Test CRC E7534677 Copy CRC E7534677 Track not present in AccurateRip database Copy OK

Track 11

Filename g:\EAC Ripping\Murray Gold - Doctor Who- Series 4- The Specials (CD2)\11. The End of Time- The Council of the Time.wav

Peak level 96.5 % Track quality 99.7 % Test CRC 1CEE13AB Copy CRC 1CEE13AB Track not present in AccurateRip database Copy OK

Track 12

Filename g:\EAC Ripping\Murray Gold - Doctor Who- Series 4- The Specials (CD2)\12. The End of Time- The Master Suitelords.wav

Peak level 96.6 % Track quality 99.9 % Test CRC 34F654E0 Copy CRC 34F654E0 Track not present in AccurateRip database Copy OK

Track 13

Filename g:\EAC Ripping\Murray Gold - Doctor Who- Series 4- The Specials (CD2)\13. The End of Time- The Ruined Childhood.wav

Peak level 96.7 % Track quality 100.0 % Test CRC 12AB2654 Copy CRC 12AB2654 Track not present in AccurateRip database Copy OK

Track 14

Filename g:\EAC Ripping\Murray Gold - Doctor Who- Series 4- The Specials (CD2)\14. The End of Time- A Chaotic Escape.wav

Peak level 96.7 % Track quality 100.0 % Test CRC 0C7B8B86 Copy CRC 0C7B8B86 Track not present in AccurateRip database Copy OK

Track 15

Filename g:\EAC Ripping\Murray Gold - Doctor Who- Series 4- The Specials (CD2)\15. The End of Time- The World Waits.wav

Peak level 96.7 % Track quality 100.0 % Test CRC E53EF6A3 Copy CRC E53EF6A3 Track not present in AccurateRip database Copy OK

Track 16

Filename g:\EAC Ripping\Murray Gold - Doctor Who- Series 4- The Specials (CD2)\16. The End of Time- A Longing to Leave.wav

Peak level 14.0 % Track quality 100.0 % Test CRC D350D908 Copy CRC D350D908 Track not present in AccurateRip database Copy OK

Track 17

Filename g:\EAC Ripping\Murray Gold - Doctor Who- Series 4- The Specials (CD2)\17. The End of Time- A Lot of Life Behind Us.wav

Peak level 88.0 % Track quality 99.9 % Test CRC ADA16286 Copy CRC ADA16286 Track not present in AccurateRip database Copy OK

Track 18

Filename g:\EAC Ripping\Murray Gold - Doctor Who- Series 4- The Specials (CD2)\18. The End of Time- Dealing with the Menace.wav

Peak level 92.4 % Track quality 99.8 % Test CRC 0363F889 Copy CRC 0363F889 Track not present in AccurateRip database Copy OK

Track 19

Filename g:\EAC Ripping\Murray Gold - Doctor Who- Series 4- The Specials (CD2)\19. The End of Time- Speeding to Earth.wav

Peak level 96.7 % Track quality 100.0 % Test CRC B09864F8 Copy CRC B09864F8 Track not present in AccurateRip database Copy OK

Track 20

Filename g:\EAC Ripping\Murray Gold - Doctor Who- Series 4- The Specials (CD2)\20. The End of Time- The Time Lords'' Last Stand.wav

Peak level 96.6 % Track quality 100.0 % Test CRC 4A1B4C0D Copy CRC 4A1B4C0D Track not present in AccurateRip database Copy OK

Track 21

Filename g:\EAC Ripping\Murray Gold - Doctor Who- Series 4- The Specials (CD2)\21. The End of Time- The Clouds Pass.wav

Peak level 96.7 % Track quality 100.0 % Test CRC 62E72985 Copy CRC 62E72985 Track not present in AccurateRip database Copy OK

Track 22

Filename g:\EAC Ripping\Murray Gold - Doctor Who- Series 4- The Specials (CD2)\22. The End of Time- Four Knocks.wav

Peak level 96.5 % Track quality 100.0 % Test CRC 61654658 Copy CRC 61654658 Track not present in AccurateRip database Copy OK

Track 23

Filename g:\EAC Ripping\Murray Gold - Doctor Who- Series 4- The Specials (CD2)\23. The End of Time- Song for Ten (reprise).wav

Peak level 59.7 % Track quality 100.0 % Test CRC 52AC3C7E Copy CRC 52AC3C7E Track not present in AccurateRip database Copy OK

Track 24

Filename g:\EAC Ripping\Murray Gold - Doctor Who- Series 4- The Specials (CD2)\24. The End of Time- Vale Decim.wav

Peak level 96.7 % Track quality 100.0 % Test CRC 725B7E43 Copy CRC 725B7E43 Track not present in AccurateRip database Copy OK

Track 25

Filename g:\EAC Ripping\Murray Gold - Doctor Who- Series 4- The Specials (CD2)\25. The End of Time- Vale.wav

Peak level 96.7 % Track quality 100.0 % Test CRC 36BE8F5C Copy CRC 36BE8F5C Track not present in AccurateRip database Copy OK

Track 26

Filename g:\EAC Ripping\Murray Gold - Doctor Who- Series 4- The Specials (CD2)\26. The End of Time- The New Doctor.wav

Peak level 96.7 % Track quality 100.0 % Test CRC DA33A192 Copy CRC DA33A192 Track not present in AccurateRip database Copy OK

None of the tracks are present in the AccurateRip database

No errors occurred

End of status report
REM GENRE SoundtrackREM DATE 2010REM DISCID 800F131AREM COMMENT "ExactAudioCopy v0.99pb4"PERFORMER "Murray Gold"TITLE "Doctor Who: Series 4: The Specials (CD2)"FILE "Murray Gold - Doctor Who- Series 4- The Specials (CD2)\01. The End of Time- We Shall Fare Well.wav" WAVE TRACK 01 AUDIO TITLE "The End of Time: We Shall Fare Well" PERFORMER "Murray Gold" ISRC GBAJC1000237 FLAGS DCP INDEX 01 00:00:00FILE "Murray Gold - Doctor Who- Series 4- The Specials (CD2)\02. The End of Time- A Frosty Ood.wav" WAVE TRACK 02 AUDIO TITLE "The End of Time: A Frosty Ood" PERFORMER "Murray Gold" ISRC GBAJC1000238 FLAGS DCP INDEX 01 00:00:00FILE "Murray Gold - Doctor Who- Series 4- The Specials (CD2)\03. The End of Time- A Dream of Catastrophe.wav" WAVE TRACK 03 AUDIO TITLE "The End of Time: A Dream of Catastrophe" PERFORMER "Murray Gold" ISRC GBAJC1000239 FLAGS DCP INDEX 01 00:00:00FILE "Murray Gold - Doctor Who- Series 4- The Specials (CD2)\04. The End of Time- All in the Balance.wav" WAVE TRACK 04 AUDIO TITLE "The End of Time: All in the Balance" PERFORMER "Murray Gold" ISRC GBAJC1000240 FLAGS DCP INDEX 01 00:00:00FILE "Murray Gold - Doctor Who- Series 4- The Specials (CD2)\05. The End of Time- A Ruined Gaol.wav" WAVE TRACK 05 AUDIO TITLE "The End of Time: A Ruined Gaol" PERFORMER "Murray Gold" ISRC GBAJC1000241 FLAGS DCP INDEX 01 00:00:00FILE "Murray Gold - Doctor Who- Series 4- The Specials (CD2)\06. The End of Time- Wilf''s Wiggle.wav" WAVE TRACK 06 AUDIO TITLE "The End of Time: Wilf''s Wiggle" PERFORMER "Murray Gold" ISRC GBAJC1000242 FLAGS DCP INDEX 01 00:00:00FILE "Murray Gold - Doctor Who- Series 4- The Specials (CD2)\07. The End of Time- Minnie Hooper.wav" WAVE TRACK 07 AUDIO TITLE "The End of Time: Minnie Hooper" PERFORMER "Murray Gold" ISRC GBAJC1000243 FLAGS DCP INDEX 01 00:00:00FILE "Murray Gold - Doctor Who- Series 4- The Specials (CD2)\08. The End of Time- The End Draws Near.wav" WAVE TRACK 08 AUDIO TITLE "The End of Time: The End Draws Near" PERFORMER "Murray Gold" ISRC GBAJC1000244 FLAGS DCP INDEX 01 00:00:00FILE "Murray Gold - Doctor Who- Series 4- The Specials (CD2)\09. The End of Time- Gallifrey.wav" WAVE TRACK 09 AUDIO TITLE "The End of Time: Gallifrey" PERFORMER "Murray Gold" ISRC GBAJC1000245 FLAGS DCP INDEX 01 00:00:00FILE "Murray Gold - Doctor Who- Series 4- The Specials (CD2)\10. The End of Time- Final Days.wav" WAVE TRACK 10 AUDIO TITLE "The End of Time: Final Days" PERFORMER "Murray Gold" ISRC GBAJC1000246 FLAGS DCP INDEX 01 00:00:00FILE "Murray Gold - Doctor Who- Series 4- The Specials (CD2)\11. The End of Time- The Council of the Time.wav" WAVE TRACK 11 AUDIO TITLE "The End of Time: The Council of the Time" PERFORMER "Murray Gold" ISRC GBAJC1000247 FLAGS DCP INDEX 01 00:00:00FILE "Murray Gold - Doctor Who- Series 4- The Specials (CD2)\12. The End of Time- The Master Suitelords.wav" WAVE TRACK 12 AUDIO TITLE "The End of Time: The Master Suitelords" PERFORMER "Murray Gold" ISRC GBAJC1000248 FLAGS DCP INDEX 01 00:00:00FILE "Murray Gold - Doctor Who- Series 4- The Specials (CD2)\13. The End of Time- The Ruined Childhood.wav" WAVE TRACK 13 AUDIO TITLE "The End of Time: The Ruined Childhood" PERFORMER "Murray Gold" ISRC GBAJC1000249 FLAGS DCP INDEX 01 00:00:00FILE "Murray Gold - Doctor Who- Series 4- The Specials (CD2)\14. The End of Time- A Chaotic Escape.wav" WAVE TRACK 14 AUDIO TITLE "The End of Time: A Chaotic Escape" PERFORMER "Murray Gold" ISRC GBAJC1000250 FLAGS DCP INDEX 01 00:00:00FILE "Murray Gold - Doctor Who- Series 4- The Specials (CD2)\15. The End of Time- The World Waits.wav" WAVE TRACK 15 AUDIO TITLE "The End of Time: The World Waits" PERFORMER "Murray Gold" ISRC GBAJC1000251 FLAGS DCP INDEX 01 00:00:00FILE "Murray Gold - Doctor Who- Series 4- The Specials (CD2)\16. The End of Time- A Longing to Leave.wav" WAVE TRACK 16 AUDIO TITLE "The End of Time: A Longing to Leave" PERFORMER "Murray Gold" ISRC GBAJC1000252 FLAGS DCP INDEX 01 00:00:00FILE "Murray Gold - Doctor Who- Series 4- The Specials (CD2)\17. The End of Time- A Lot of Life Behind Us.wav" WAVE TRACK 17 AUDIO TITLE "The End of Time: A Lot of Life Behind Us" PERFORMER "Murray Gold" ISRC GBAJC1000253 FLAGS DCP INDEX 01 00:00:00FILE "Murray Gold - Doctor Who- Series 4- The Specials (CD2)\18. The End of Time- Dealing with the Menace.wav" WAVE TRACK 18 AUDIO TITLE "The End of Time: Dealing with the Menace" PERFORMER "Murray Gold" ISRC GBAJC1000254 FLAGS DCP INDEX 01 00:00:00FILE "Murray Gold - Doctor Who- Series 4- The Specials (CD2)\19. The End of Time- Speeding to Earth.wav" WAVE TRACK 19 AUDIO TITLE "The End of Time: Speeding to Earth" PERFORMER "Murray Gold" ISRC GBAJC1000255 FLAGS DCP INDEX 01 00:00:00FILE "Murray Gold - Doctor Who- Series 4- The Specials (CD2)\20. The End of Time- The Time Lords'' Last Stand.wav" WAVE TRACK 20 AUDIO TITLE "The End of Time: The Time Lords'' Last Stand" PERFORMER "Murray Gold" ISRC GBAJC1000256 FLAGS DCP INDEX 01 00:00:00FILE "Murray Gold - Doctor Who- Series 4- The Specials (CD2)\21. The End of Time- The Clouds Pass.wav" WAVE TRACK 21 AUDIO TITLE "The End of Time: The Clouds Pass" PERFORMER "Murray Gold" ISRC GBAJC1000257 FLAGS DCP INDEX 01 00:00:00FILE "Murray Gold - Doctor Who- Series 4- The Specials (CD2)\22. The End of Time- Four Knocks.wav" WAVE TRACK 22 AUDIO TITLE "The End of Time: Four Knocks" PERFORMER "Murray Gold" ISRC GBAJC1000258 FLAGS DCP INDEX 01 00:00:00FILE "Murray Gold - Doctor Who- Series 4- The Specials (CD2)\23. The End of Time- Song for Ten (reprise).wav" WAVE TRACK 23 AUDIO TITLE "The End of Time: Song for Ten (reprise)" PERFORMER "Murray Gold" ISRC GBAJC1000259 FLAGS DCP INDEX 01 00:00:00FILE "Murray Gold - Doctor Who- Series 4- The Specials (CD2)\24. The End of Time- Vale Decim.wav" WAVE TRACK 24 AUDIO TITLE "The End of Time: Vale Decim" PERFORMER "Murray Gold" ISRC GBAJC1000260 FLAGS DCP INDEX 01 00:00:00FILE "Murray Gold - Doctor Who- Series 4- The Specials (CD2)\25. The End of Time- Vale.wav" WAVE TRACK 25 AUDIO TITLE "The End of Time: Vale" PERFORMER "Murray Gold" ISRC GBAJC1000261 FLAGS DCP INDEX 01 00:00:00FILE "Murray Gold - Doctor Who- Series 4- The Specials (CD2)\26. The End of Time- The New Doctor.wav" WAVE TRACK 26 AUDIO TITLE "The End of Time: The New Doctor" PERFORMER "Murray Gold" ISRC GBAJC1000262 FLAGS DCP INDEX 01 00:00:00
REM GENRE SoundtrackREM DATE 2010REM DISCID 800F131AREM COMMENT "ExactAudioCopy v0.99pb4"PERFORMER "Murray Gold"TITLE "Doctor Who: Series 4: The Specials (CD2)"FILE "01. The End of Time- We Shall Fare Well.wav" WAVE TRACK 01 AUDIO TITLE "The End of Time: We Shall Fare Well" PERFORMER "Murray Gold" ISRC GBAJC1000237 FLAGS DCP INDEX 01 00:00:00FILE "02. The End of Time- A Frosty Ood.wav" WAVE TRACK 02 AUDIO TITLE "The End of Time: A Frosty Ood" PERFORMER "Murray Gold" ISRC GBAJC1000238 FLAGS DCP INDEX 01 00:00:00FILE "03. The End of Time- A Dream of Catastrophe.wav" WAVE TRACK 03 AUDIO TITLE "The End of Time: A Dream of Catastrophe" PERFORMER "Murray Gold" ISRC GBAJC1000239 FLAGS DCP INDEX 01 00:00:00FILE "04. The End of Time- All in the Balance.wav" WAVE TRACK 04 AUDIO TITLE "The End of Time: All in the Balance" PERFORMER "Murray Gold" ISRC GBAJC1000240 FLAGS DCP INDEX 01 00:00:00FILE "05. The End of Time- A Ruined Gaol.wav" WAVE TRACK 05 AUDIO TITLE "The End of Time: A Ruined Gaol" PERFORMER "Murray Gold" ISRC GBAJC1000241 FLAGS DCP INDEX 01 00:00:00FILE "06. The End of Time- Wilf''s Wiggle.wav" WAVE TRACK 06 AUDIO TITLE "The End of Time: Wilf''s Wiggle" PERFORMER "Murray Gold" ISRC GBAJC1000242 FLAGS DCP INDEX 01 00:00:00FILE "07. The End of Time- Minnie Hooper.wav" WAVE TRACK 07 AUDIO TITLE "The End of Time: Minnie Hooper" PERFORMER "Murray Gold" ISRC GBAJC1000243 FLAGS DCP INDEX 01 00:00:00FILE "08. The End of Time- The End Draws Near.wav" WAVE TRACK 08 AUDIO TITLE "The End of Time: The End Draws Near" PERFORMER "Murray Gold" ISRC GBAJC1000244 FLAGS DCP INDEX 01 00:00:00FILE "09. The End of Time- Gallifrey.wav" WAVE TRACK 09 AUDIO TITLE "The End of Time: Gallifrey" PERFORMER "Murray Gold" ISRC GBAJC1000245 FLAGS DCP INDEX 01 00:00:00FILE "10. The End of Time- Final Days.wav" WAVE TRACK 10 AUDIO TITLE "The End of Time: Final Days" PERFORMER "Murray Gold" ISRC GBAJC1000246 FLAGS DCP INDEX 01 00:00:00FILE "11. The End of Time- The Council of the Time.wav" WAVE TRACK 11 AUDIO TITLE "The End of Time: The Council of the Time" PERFORMER "Murray Gold" ISRC GBAJC1000247 FLAGS DCP INDEX 01 00:00:00FILE "12. The End of Time- The Master Suitelords.wav" WAVE TRACK 12 AUDIO TITLE "The End of Time: The Master Suitelords" PERFORMER "Murray Gold" ISRC GBAJC1000248 FLAGS DCP INDEX 01 00:00:00FILE "13. The End of Time- The Ruined Childhood.wav" WAVE TRACK 13 AUDIO TITLE "The End of Time: The Ruined Childhood" PERFORMER "Murray Gold" ISRC GBAJC1000249 FLAGS DCP INDEX 01 00:00:00FILE "14. The End of Time- A Chaotic Escape.wav" WAVE TRACK 14 AUDIO TITLE "The End of Time: A Chaotic Escape" PERFORMER "Murray Gold" ISRC GBAJC1000250 FLAGS DCP INDEX 01 00:00:00FILE "15. The End of Time- The World Waits.wav" WAVE TRACK 15 AUDIO TITLE "The End of Time: The World Waits" PERFORMER "Murray Gold" ISRC GBAJC1000251 FLAGS DCP INDEX 01 00:00:00FILE "16. The End of Time- A Longing to Leave.wav" WAVE TRACK 16 AUDIO TITLE "The End of Time: A Longing to Leave" PERFORMER "Murray Gold" ISRC GBAJC1000252 FLAGS DCP INDEX 01 00:00:00FILE "17. The End of Time- A Lot of Life Behind Us.wav" WAVE TRACK 17 AUDIO TITLE "The End of Time: A Lot of Life Behind Us" PERFORMER "Murray Gold" ISRC GBAJC1000253 FLAGS DCP INDEX 01 00:00:00FILE "18. The End of Time- Dealing with the Menace.wav" WAVE TRACK 18 AUDIO TITLE "The End of Time: Dealing with the Menace" PERFORMER "Murray Gold" ISRC GBAJC1000254 FLAGS DCP INDEX 01 00:00:00FILE "19. The End of Time- Speeding to Earth.wav" WAVE TRACK 19 AUDIO TITLE "The End of Time: Speeding to Earth" PERFORMER "Murray Gold" ISRC GBAJC1000255 FLAGS DCP INDEX 01 00:00:00FILE "20. The End of Time- The Time Lords'' Last Stand.wav" WAVE TRACK 20 AUDIO TITLE "The End of Time: The Time Lords'' Last Stand" PERFORMER "Murray Gold" ISRC GBAJC1000256 FLAGS DCP INDEX 01 00:00:00FILE "21. The End of Time- The Clouds Pass.wav" WAVE TRACK 21 AUDIO TITLE "The End of Time: The Clouds Pass" PERFORMER "Murray Gold" ISRC GBAJC1000257 FLAGS DCP INDEX 01 00:00:00FILE "22. The End of Time- Four Knocks.wav" WAVE TRACK 22 AUDIO TITLE "The End of Time: Four Knocks" PERFORMER "Murray Gold" ISRC GBAJC1000258 FLAGS DCP INDEX 01 00:00:00FILE "23. The End of Time- Song for Ten (reprise).wav" WAVE TRACK 23 AUDIO TITLE "The End of Time: Song for Ten (reprise)" PERFORMER "Murray Gold" ISRC GBAJC1000259 FLAGS DCP INDEX 01 00:00:00FILE "24. The End of Time- Vale Decim.wav" WAVE TRACK 24 AUDIO TITLE "The End of Time: Vale Decim" PERFORMER "Murray Gold" ISRC GBAJC1000260 FLAGS DCP INDEX 01 00:00:00FILE "25. The End of Time- Vale.wav" WAVE TRACK 25 AUDIO TITLE "The End of Time: Vale" PERFORMER "Murray Gold" ISRC GBAJC1000261 FLAGS DCP INDEX 01 00:00:00FILE "26. The End of Time- The New Doctor.wav" WAVE TRACK 26 AUDIO TITLE "The End of Time: The New Doctor" PERFORMER "Murray Gold" ISRC GBAJC1000262 FLAGS DCP INDEX 01 00:00:00



Трекер:  [ 25-Сен-2013 08:26 ]

  

Скачать .torrent

Размер .torrent файла 62 KB


Размер: 4.34 GB
Хэш (hash) релиза: 173444ce51d6d448ba2186ee303fc3dcaddebbc1

Торренты, похожие на Доктор Кто Doctor Who: Series 1-7 + The Specials скачать торрент

Форум Название Автор Размер S L Добавлен
Саундтреки к фильмам и мультфильмам (mp3) ·· (Score) Доктор Кто - 7 сезонов / Doctor Who - Series 1-7 + 4: The Specials + A Christmas Carol + The Snowmen + The Doctor, The Widow and The Wardrobe (by Murray Gold) - 2006-2013, MP3, 320 kbps Galfimbul 22335484862.08 GB 0 0 1383467794

11:36

3-Ноя-13

Еще никто не оставлял запись к записи скачать торрент Доктор Кто Doctor Who: Series 1-7 + The Specials . Будь первым!

!Обратная связь