Скачать порно через торрент Nuki Doki! Tenshi to Akuma no Sakusei Battle Секс и Любовь! ~Развратная битва Ангелов и Демонов~ UnionPeer.org бесплатно онлайн HD качество

Скачать новое порно 2015, 2014 новинки через торрент UnionPeer.org

Порно торрент бесплатно ЮнионПир.орг

Если у вас наблюдаются проблемы со скриншотами, переходом по ссылками, скачиванием торрентов - проблемы в блокировщике рекламы AdBlock. #хорошегоДня!


Статистика раздачи
Размер:  3.82 GB   |    Зарегистрирован:  4 года 2 месяца   |    .torrent скачан:  182 раза   |   
Раздают:  1  
   
Загрузка...
 
Автор Сообщение

LinGr

avatar LinGr


Nuki Doki! Tenshi to Akuma no Sakusei Battle / ヌキどきッ! ~天使と悪魔の搾精バトル~
Секс и Любовь! ~Развратная битва Ангелов и Демонов~

Год производства: 2013 г.
Жанр: Big tits, Oral sex, Titsjob, Mystic, Angels, Demons
Серии: ep. 1
Продолжительность: 30 min
Цензура: Есть

Озвучка: Оригинальная (Японский)

Автор оригинала: Grand Cru Bourgeois
Студия: PoRO

Описание RUS: Нелегка жизнь ОЯШ’а. Ямато проводил свои дни в скуке, пока однажды перед ним не появились ангелы и демоны. Их долгая вражда порядком всем надоела, поэтому люди были выбраны в качестве третьей стороны в мирных переговорах. А Ямато, разумеется, представителем людей. Контракт подписан, симпатичный ангел Сара Митра Айрун оставлена от ангелов, сексуальный демон Фирика Мия Сатана от демонов. Странно, но весьма приятно, считал герой. Вскоре Фирика, чтобы перетянуть героя на свою сторону, занялась с ним сексом. Прилетевший следом ангелочек Сара попала в ловушку и лишилась девственности. Тем самым Ямато вовлек мир людей в развратное противостояние между демонами и ангелами! Как сложится судьба героя, окруженного четырьмя красивыми девушками?

Описание ENG: Life is not easy OYaSh'a. Yamato spent his days in boredom until one day before it did not appear the angels and demons. Their long feud order everyone is sick, so people have been chosen as a third party in the peace talks. And Yamato, of course, representative of the people. The contract was signed, cute angel Sara Mitra Airuno left of the angels, sexy demon Firika Mia Satan from demons. It is strange, but not unpleasant, considered a hero. Soon Firika to drag the hero to his side, sex with him. Angel flew after Sarah was trapped and lost her virginity. Thus, the Yamato people involved in the world of perverse conflict between demons and angels! As the fate of the hero, surrounded by four beautiful girls?
Информационные ссылки: AniDB - World Art - ХентайМаг

Качество видео: DVD5
Формат видео: DVD Video
Видео кодек: MPEG2
Аудио кодек: AC3
Видео: 720х480, (16:9), 29,970 кадров/сек, ~ 7200 Кбит/сек, NTSC
Аудио 1: JAP, AC-3, 2 канала, 192 Кбит/сек, 48,0 КГц
Аудио 2: JAP, AC-3, 2 канала, 192 Кбит/сек, 48,0 КГц
Общее
Полное имя : J:\VIDEO_TS\VTS_01_1.VOB
Формат : MPEG-PS
Размер файла : 1024 Мбайт
Продолжительность : 18 м.
Общий поток : 7723 Кбит/сек

Видео
Идентификатор : 224 (0xE0)
Формат : MPEG Video
Версия формата : Version 2
Профиль формата : Main@Main
Параметр BVOP формата : Да
Параметр матрицы формата : Выборочная
Параметр GOP формата : Variable
Продолжительность : 18 м.
Битрейт : 7200 Кбит/сек
Ширина : 720 пикселей
Высота : 480 пикселей
Соотношение сторон : 16:9
Частота кадров : 29,970 кадров/сек
Стандарт вещания : NTSC
Цветовое пространство : YUV
Субдискретизация насыщенности : 4:2:0
Битовая глубина : 8 бит
Тип развёртки : Чересстрочная
Порядок развёртки : Верхнее поле первое
Метод сжатия : С потерями
Бит/(Пиксели*Кадры) : 0.695
Временной код первого кадра : 01:00:00:00
Оригинал временного кода : Group of pictures header
Размер потока : 953 Мбайт (93%)

Аудио #1
Идентификатор : 189 (0xBD)-128 (0x80)
Формат : AC-3
Формат/Информация : Audio Coding 3
Расширение режима : CM (complete main)
Параметр Endianness формата : Big
Режим смешивания : DVD-Video
Продолжительность : 18 м.
Вид битрейта : Постоянный
Битрейт : 192 Кбит/сек
Каналы : 2 канала
Расположение каналов : Front: L R
Частота : 48,0 КГц
Битовая глубина : 16 бит
Метод сжатия : С потерями
Размер потока : 25,5 Мбайт (2%)

Аудио #2
Идентификатор : 189 (0xBD)-129 (0x81)
Формат : AC-3
Формат/Информация : Audio Coding 3
Расширение режима : CM (complete main)
Параметр Endianness формата : Big
Режим смешивания : DVD-Video
Продолжительность : 18 м.
Вид битрейта : Постоянный
Битрейт : 192 Кбит/сек
Каналы : 2 канала
Расположение каналов : Front: L R
Частота : 48,0 КГц
Битовая глубина : 16 бит
Метод сжатия : С потерями
Размер потока : 25,5 Мбайт (2%)

Меню



Трекер:  [ 11-Сен-2013 16:28 ]

  

Скачать .torrent

Размер .torrent файла 19 KB


Размер: 3.82 GB
Хэш (hash) релиза: 5a069df040bff83e04265101858503c59bd87ef5

Торренты, похожие на Nuki Doki! Tenshi to Akuma no Sakusei Battle Секс и Любовь! ~Развратная битва Ангелов и Демонов~ скачать торрент

Форум Название Автор Размер S L Добавлен
Хентай | С цензурой ·· Nuki Doki! Tenshi to Akuma no Sakusei Battle / Секс и Любовь! ~Развратная битва Ангелов и Демонов~ (PoRO) (ep. 1) [cen] [2013 г. Angel, Demon, Blowjob, Titsjob, School, DVDRip] [jap / eng / rus] Galfimbul 354534088338 MB 0 0 1372582167

11:49

30-Июн-13

Хентай | С цензурой ·· Nuki Doki! ~Tenshi to Akuma no Sakusei Battle~ / Секс и Любовь! ~Развратная битва Ангелов и Демонов~ (PON, PoRO) (01) [cen] [2013 г., Fantasy, Demon Girl, Neko, Angel, Virgin, Outdoor, Anal, Bondage, Futanari, Maid, DVDRip] [jap] Galfimbul 312382521298 MB 2 0 1370098995

18:03

1-Июн-13

bot

Топик был перенесен в форум Хентай | С цензурой

Перенес LinGr

Хотите добавить комментарий к записи скачать торрент Nuki Doki! Tenshi to Akuma no Sakusei Battle Секс и Любовь! ~Развратная битва Ангелов и Демонов~

!Обратная связь