Скачать порно через торрент DWV A Bride on Top DWV Невеста на Топ UnionPeer.org бесплатно онлайн HD качество

Скачать новое порно 2015, 2014 новинки через торрент UnionPeer.org

Порно торрент бесплатно ЮнионПир.орг

Если у вас наблюдаются проблемы со скриншотами, переходом по ссылками, скачиванием торрентов - проблемы в блокировщике рекламы AdBlock. #хорошегоДня!


Статистика раздачи
Размер:  321 MB   |    Зарегистрирован:  4 года 1 месяц   |    .torrent скачан:  336 раз   |   
Раздают:  1  
   
Загрузка...
 
Автор Сообщение

LinGr

avatar LinGr


DWV A Bride on Top / DQV〜騎乗の花嫁〜
DWV Невеста на Топ

Год производства: 2013 г.
Жанр: Violation Captivity Monster
Серии: 1
Продолжительность: 8:34
Цензура: Есть во всех файлах

Язык: Японский
Озвучка: Оригинальная
Студия: MITSU-MAME


Описание:
Дебют Mitsu-Маме 3D-продуктов, пародия в Dragon Quest V.
В качестве первого въезда в DQV серии, bridely Bi * NCA колеблется Ян * миль пастушка стиле.
Полный 3DCG / полностью озвученные

Качество видео: GameRip
Формат видео: WMV
Видео кодек: Windows Media
Аудио кодек: WMA
Видео: Windows Media Video 8 800x600 4 883kbps
Аудио 1: WMA 2 48000Hz stereo 128kbps

Video
ID : 1
Format : WMV2
Codec ID : WMV2
Codec ID/Info : Windows Media Video 8
Description of the codec : wmv2
Duration : 8mn 34s
Bit rate : 4 883 Kbps
Width : 800 pixels
Height : 600 pixels
Display aspect ratio : 4:3
Frame rate : 24.000 fps
Bit depth : 8 bits
Bits/(Pixel*Frame) : 0.424
Stream size : 299 MiB (93%)

Audio
ID : 2
Format : WMA
Format version : Version 2
Codec ID : 161
Codec ID/Info : Windows Media Audio
Description of the codec : Windows Media Audio V8
Duration : 8mn 34s
Bit rate : 128 Kbps
Channel(s) : 2 channels
Sampling rate : 48.0 KHz
Bit depth : 16 bits
Stream size : 7.85 MiB (2%)


Трекер:  [ 10-Сен-2013 01:10 ]

  

Скачать .torrent

Размер .torrent файла 13 KB


Размер: 321 MB
Хэш (hash) релиза: f9b25914b58e46a8d91495e1ca828808e5efe09b

bot

Топик был перенесен в форум Хентай | С цензурой

Перенес LinGr

Хотите добавить комментарий к записи скачать торрент DWV A Bride on Top DWV Невеста на Топ

!Обратная связь