Скачать порно через торрент Tails Cat-Delusion World Обманчивый мир UnionPeer.org бесплатно онлайн HD качество

Скачать новое порно 2015, 2014 новинки через торрент UnionPeer.org

Порно торрент бесплатно ЮнионПир.орг

Если у вас наблюдаются проблемы со скриншотами, переходом по ссылками, скачиванием торрентов - проблемы в блокировщике рекламы AdBlock. #хорошегоДня!


Статистика раздачи
Размер:  778 MB   |    Зарегистрирован:  3 года 11 месяцев   |    .torrent скачан:  409 раз   |   
Раздают:  1  
   
Загрузка...
 
Автор Сообщение

LinGr

avatar LinGr



TAILS CAT-DELUSIONWORLD- / TAILS CAT-妄想WORLD /


Год производства: 2013 г.
Жанр: Creampie, Big Tits , Rape , Animation, 3DCG
Продолжительность: 11:10
Цензура: Есть во всех файлах

Язык: Японский
Озвучка: Оригинальная
Студия: WTC-project

Описание:
Blowjob! Back! ! Between the crotches of the M character! ! Rape flexible Shi at various angles♪
Watch various foolery scenes of Beautiful Girl Cyril Brooklyn that caused a Birei illustration of the Shiroumasamune for the cause from many viewpoints, and roll it up!
A collection of pictures keeping boiling with the high quality image which made efforts in a shaking chest, warped buttocks, a face to be shy with very much! !

Качество видео: GameRip
Формат видео: WMV
Видео кодек: Windows Media
Аудио кодек: WMA
Видео: Windows Media Video 9 948x532 30fps 9256kbps
Аудио 1: WMA Pro 44100Hz stereo 440kbps

Video
ID : 1
Format : VC-1
Format profile : MP@HL
Codec ID : WMV3
Codec ID/Info : Windows Media Video 9
Codec ID/Hint : WMV3
Description of the codec : Windows Media Video 9
Duration : 11mn 10s
Bit rate mode : Variable
Bit rate : 9 257 Kbps
Width : 948 pixels
Height : 532 pixels
Display aspect ratio : 16:9
Frame rate : 30.000 fps
Bit depth : 8 bits
Scan type : Progressive
Compression mode : Lossy
Bits/(Pixel*Frame) : 0.612
Stream size : 740 MiB (95%)
Language : Latvian

Audio
ID : 2
Format : WMA
Format profile : Pro
Codec ID : 162
Codec ID/Info : Windows Media Audio
Description of the codec : Windows Media Audio 10 Professional - 440 kbps, 44 kHz, 2 channel 24 bit (A/V) 1-pass CBR
Duration : 11mn 10s
Bit rate mode : Constant
Bit rate : 440 Kbps
Channel(s) : 2 channels
Sampling rate : 44.1 KHz
Bit depth : 24 bits
Stream size : 35.2 MiB (5%)


Трекер:  [ 10-Сен-2013 01:10 ]

  

Скачать .torrent

Размер .torrent файла 15 KB


Размер: 778 MB
Хэш (hash) релиза: a1642196f312e6ef37ffa1706547b8a177e3f74d

bot

Топик был перенесен в форум Хентай | С цензурой

Перенес LinGr

Хотите добавить комментарий к записи скачать торрент Tails Cat-Delusion World Обманчивый мир

!Обратная связь