Скачать порно через торрент Waisetsu Missile The Animation Obscene Missle UnionPeer.org бесплатно онлайн HD качество

Скачать новое порно 2015, 2014 новинки через торрент UnionPeer.org

Порно торрент бесплатно ЮнионПир.орг

Если у вас наблюдаются проблемы со скриншотами, переходом по ссылками, скачиванием торрентов - проблемы в блокировщике рекламы AdBlock. #хорошегоДня!


Статистика раздачи
Размер:  3.14 GB   |    Зарегистрирован:  3 года 11 месяцев   |    .torrent скачан:  139 раз   |   
Раздают:  1  
   
Загрузка...
 
Автор Сообщение

LinGr

avatar LinGr


Waisetsu Missile The Animation / Obscene Missle / 猥褻ミサイル THE ANIMATION
Реактивные непристойности

Год производства: 2013 г.
Жанр: Anal sex, Big tits, Group sex, Milk, Oral sex, School, Rape, Toys
Серии: ep. 1
Продолжительность: 27 min
Цензура: Есть

Озвучка: Оригинальная (Японский)

Режиссер: Araki Hideki
Автор оригинала: Taropun
Студия: Pink Pineapple

Описание RUS: Экранизация одноимённого сборника рассказов за авторством Taropun. В 1 эпизоде экранизируется 2 рассказа: про девочку которую изнасиловали три одноклассника и вторая про девочку-коровку, которую как-то раз мама купила со словами "Теперь нам о молочке можно не беспокоиться!"

Описание ENG: Screen adaptation of the collection of short stories authored Taropun. In one episode, filmed 2 stories: about a girl is raped three classmates and the second about a girl-cow that had once bought my mother saying, "Now we have a jelly can not worry!"

Информационные ссылки: AniDB - MAL - World Art - ХентайМаг

Качество видео: DVD5
Формат видео: DVD Video
Видео кодек: MPEG2
Аудио кодек: AC3
Видео: 720х480, (16:9), 29,970 кадров/сек, ~ 8952 Кбит/сек, NTSC
Аудио: JAP, AC-3, 2 канала, 192 Кбит/сек, 48,0 КГц
Общее
Полное имя : J:\VIDEO_TS\VTS_01_1.VOB
Формат : MPEG-PS
Размер файла : 1024 Мбайт
Продолжительность : 15 м.
Режим общего битрейта : Переменный
Общий поток : 9329 Кбит/сек

Видео
Идентификатор : 224 (0xE0)
Формат : MPEG Video
Версия формата : Version 2
Профиль формата : Main@Main
Параметр BVOP формата : Да
Параметр матрицы формата : Выборочная
Параметр GOP формата : Variable
Продолжительность : 15 м.
Вид битрейта : Переменный
Битрейт : 8952 Кбит/сек
Максимальный битрейт : 9800 Кбит/сек
Ширина : 720 пикселей
Высота : 480 пикселей
Соотношение сторон : 16:9
Частота кадров : 29,970 кадров/сек
Стандарт вещания : NTSC
Цветовое пространство : YUV
Субдискретизация насыщенности : 4:2:0
Битовая глубина : 8 бит
Тип развёртки : Чересстрочная
Порядок развёртки : Верхнее поле первое
Метод сжатия : С потерями
Бит/(Пиксели*Кадры) : 0.864
Временной код первого кадра : 01:00:11:00
Оригинал временного кода : Group of pictures header
Размер потока : 982 Мбайт (96%)

Аудио
Идентификатор : 189 (0xBD)-128 (0x80)
Формат : AC-3
Формат/Информация : Audio Coding 3
Расширение режима : CM (complete main)
Параметр Endianness формата : Big
Режим смешивания : DVD-Video
Продолжительность : 15 м.
Вид битрейта : Постоянный
Битрейт : 192 Кбит/сек
Каналы : 2 канала
Расположение каналов : Front: L R
Частота : 48,0 КГц
Битовая глубина : 16 бит
Метод сжатия : С потерями
Размер потока : 21,1 Мбайт (2%)

Меню



Трекер:  [ 10-Сен-2013 01:10 ]

  

Скачать .torrent

Размер .torrent файла 16 KB


Размер: 3.14 GB
Хэш (hash) релиза: 9fc9be32a528ee1e6909b4b3689e41d1e36570c2

bot

Топик был перенесен в форум Хентай | С цензурой

Перенес LinGr

Хотите добавить комментарий к записи скачать торрент Waisetsu Missile The Animation Obscene Missle

!Обратная связь