Скачать порно через торрент Wallpaper her Её обои UnionPeer.org бесплатно онлайн HD качество

Скачать новое порно 2015, 2014 новинки через торрент UnionPeer.org

Порно торрент бесплатно ЮнионПир.орг

Если у вас наблюдаются проблемы со скриншотами, переходом по ссылками, скачиванием торрентов - проблемы в блокировщике рекламы AdBlock. #хорошегоДня!


Статистика раздачи
Размер:  1.02 GB   |    Зарегистрирован:  3 года 11 месяцев   |    .torrent скачан:  184 раза   |   
Раздают:  1  
   
Загрузка...
 
Автор Сообщение

LinGr

avatar LinGr


Wallpaper her / 壁紙彼女?
Её обои

Год производства: 2013 г. 04/09/2013
Жанр: Romance, Vanilla Sex, Internal Cumshot, Twin Tail
Серии: 1
Продолжительность: 25:27
Цензура: Есть во всех файлах

Язык: Японский
Озвучка: Оригинальная

Студия: Aniporira~ifutsu




Описание: Что делать, если девушкe на рабочем столе монитора было душно?????

Доп. информация:
- 1280x720 WMV movie
- 30 кадров в секунду 3DCG гладкой анимации
- Все сцены имеют H проникновение, сперма в жопе
- Имитация мягкость и Bounciness.
- Имитация жидкости
- Полностью озвучена, полностью анимированные
Качество видео: GameRip
Формат видео: WMV
Видео кодек: Windows Media
Аудио кодек: WMA
Видео: Windows Media Video 9 1280x720 30fps 7000kbps
Аудио 1: WMA 2 44100Hz stereo 192kbps

Video
ID : 2
Format : VC-1
Format profile : MP@HL
Codec ID : WMV3
Codec ID/Info : Windows Media Video 9
Codec ID/Hint : WMV3
Description of the codec : Windows Media Video 9 - Professional
Duration : 25mn 27s
Bit rate mode : Constant
Bit rate : 7 000 Kbps
Width : 1 280 pixels
Height : 720 pixels
Display aspect ratio : 16:9
Frame rate : 30.000 fps
Bit depth : 8 bits
Scan type : Progressive
Compression mode : Lossy
Bits/(Pixel*Frame) : 0.253
Stream size : 1.24 GiB
Language : Japanese
NumberOfFrames : 45800

Audio
ID : 1
Format : WMA
Format version : Version 2
Codec ID : 161
Codec ID/Info : Windows Media Audio
Description of the codec : Windows Media Audio 9.2 - 192 kbps, 44 kHz, stereo (A/V) 2-pass CBR
Duration : 25mn 27s
Bit rate mode : Constant
Bit rate : 192 Kbps
Channel(s) : 2 channels
Sampling rate : 44.1 KHz
Bit depth : 16 bits
Stream size : 35.0 MiB (3%)
Language : Japanese
NumberOfFrames : 8226



Трекер:  [ 08-Сен-2013 23:53 ]

  

Скачать .torrent

Размер .torrent файла 10 KB


Размер: 1.02 GB
Хэш (hash) релиза: e3e89402410edd6ec7e308bf550af1d3af936df0

bot

Топик был перенесен в форум Хентай | С цензурой

Перенес LinGr

Хотите добавить комментарий к записи скачать торрент Wallpaper her Её обои

!Обратная связь