Скачать через торрент музыку Supa. T {Trevor Taylor ex Bad Boys Blue} - Дискография - 1995-1999, FLAC бесплатно без регистрации torrent

Если у вас наблюдаются проблемы со скриншотами, переходом по ссылками, скачиванием торрентов - проблемы в блокировщике рекламы AdBlock. #хорошегоДня!


Статистика раздачи
Размер:  1.7 GB   |    Зарегистрирован:  3 года 11 месяцев   |    .torrent скачан:  118 раз   |   
Раздают:  1  
   
Загрузка...
 
Автор Сообщение

Polarnik

avatar Polarnik


Supa. T (Trevor Taylor - ex Bad Boys Blue) & the Party Animals - FULL DISCOGRAPHY - 1995-1999

Жанр: Reggae / UK Electropop / Dancehall
Год выпуска диска: 1995-1998
Производитель диска: Germany, Spain
Издатель (лейбл): BMG, Vale Music
Аудио кодек: FLAC
Битрейт аудио: lossless
Тип рипа: image+.cue
Продолжительность: 03.50.48
Источник (релизер): Sephirotto (собственные рипы)
Наличие сканов в содержимом раздачи: Да
Трэклист:
1 - My Dog (Radio Mix)
2 - My Dog (Bubbling Dog Mix)
3 - My Dog (Stink Mix)
4 - Ragga Muffin In The House
5 - Quality
1 - Love and Respect (Radio Edit)
2 - Love and Respect (Levent''s Radio Edit)
3 - Love and Respect (Extended Mix)
4 - Love and Respect (Levent''s Extended Mix)
5 - Gotta Jump (Party Aminals Drop Mix)
1 - Love and Respect (Radio Edit)
2 - Love and Respect (Levent''s Radio Edit)
3 - Love and Respect (Extended Mix)
4 - Love and Respect (Levent''s Extended Mix)
1 - Gotta Jump (Radio Mix)
2 - Gotta Jump (Chuck Mellow RMX)
3 - Gotta Jump (Party Animals Drop Mix)
4 - Gotta Jump (Maniac Bandicoot''s Mix)
1 - Be True (Single Edit)
2 - Be True (Album Version)
1 - Be True (Radio Version)
2 - Be True (Album Version)
3 - Be True (Instrumental Version)
4 - On My Mind
1. Can I
2. Love & Respect
3. On My Mind
4. Mr. Incredible
5. I''ll Be Waiting
6. Together
7. It''s Alright
8. Raggamuffin In The House
9. Quality
10. My Dog
11. Jump Around
12. Gotta Jump
13. Love & Respect (Levent''s Mix)
14. My Dog (Joined Mix)
1. Can I
2. On My Mind
3. Mr. Incredible
4. I''ll Be Waiting
5. Together
6. Ragga Ragga
7. It''s Alright
8. Raggamuffin In The House
9. Quality
10. My Dog
11. Jump Around
12. Gotta Jump
13. My Dog (Joined Mix)
14. Be True
Exact Audio Copy V0.99 prebeta 5 from 4. May 2009

Отчёт EAC об извлечении, выполненном 28. сентября 2010, 20:38

Supa T / My Dog (Is Better Than Your Dog)

Дисковод: ASUS DRW-20B1LT Adapter: 4 ID: 1

Режим чтения : Достоверность
Использование точного потока : Да
Отключение кэша аудио : Да
Использование указателей C2 : Нет

Коррекция смещения при чтении : 6
Способность читать области Lead-in и Lead-out : Нет
Заполнение пропущенных сэмплов тишиной : Да
Удаление блоков с тишиной в начале и конце : Нет
При вычислениях CRC использовались нулевые сэмплы : Да
Интерфейс : Установленный внешний ASPI-интерфейс

Выходной формат : Внутренние WAV-операции
Формат сэмплов : 44.100 Гц; 16 бит; стерео

TOC извлечённого CD

Трек | Старт | Длительность | Начальный сектор | Конечный сектор
---------------------------------------------------------------------
1 | 0:00.32 | 3:28.28 | 32 | 15659
2 | 3:28.60 | 4:34.57 | 15660 | 36266
3 | 8:03.42 | 4:56.68 | 36267 | 58534
4 | 13:00.35 | 3:37.47 | 58535 | 74856
5 | 16:38.07 | 5:56.25 | 74857 | 101581

Характеристики диапазона извлечения и сообщения об ошибках

Выбранный диапазон

Имя файла D:\Purity\1995 - My Dog (Is Better Than Your Dog)\Supa T - My Dog (Is Better Than Your Dog).wav

Пиковый уровень 99.0 %
Качество диапазона 100.0 %
CRC теста 8265B915
CRC копии 8265B915
Копирование... OK

Ошибок не произошло

AccurateRip: сводка

Трек 1 нет в базе данных
Трек 2 нет в базе данных
Трек 3 нет в базе данных
Трек 4 нет в базе данных
Трек 5 нет в базе данных

Ни одного трека нет в базе AccurateRip

Конец отчёта
Exact Audio Copy V0.99 prebeta 5 from 4. May 2009

Отчёт EAC об извлечении, выполненном 28. сентября 2010, 20:52

Supa T / Love & Respect

Дисковод: ASUS DRW-20B1LT Adapter: 4 ID: 1

Режим чтения : Достоверность
Использование точного потока : Да
Отключение кэша аудио : Да
Использование указателей C2 : Нет

Коррекция смещения при чтении : 6
Способность читать области Lead-in и Lead-out : Нет
Заполнение пропущенных сэмплов тишиной : Да
Удаление блоков с тишиной в начале и конце : Нет
При вычислениях CRC использовались нулевые сэмплы : Да
Интерфейс : Установленный внешний ASPI-интерфейс

Выходной формат : Внутренние WAV-операции
Формат сэмплов : 44.100 Гц; 16 бит; стерео

TOC извлечённого CD

Трек | Старт | Длительность | Начальный сектор | Конечный сектор
---------------------------------------------------------------------
1 | 0:00.32 | 3:57.55 | 32 | 17861
2 | 3:58.12 | 4:02.60 | 17862 | 36071
3 | 8:00.72 | 4:45.60 | 36072 | 57506
4 | 12:46.57 | 6:29.05 | 57507 | 86686
5 | 19:15.62 | 5:29.08 | 86687 | 111369

Характеристики диапазона извлечения и сообщения об ошибках

Выбранный диапазон

Имя файла D:\Purity\1996 - Love & Respect\Supa T - Love & Respect.wav

Пиковый уровень 100.0 %
Качество диапазона 100.0 %
CRC теста D2BBBFB9
CRC копии D2BBBFB9
Копирование... OK

Ошибок не произошло

AccurateRip: сводка

Трек 1 нет в базе данных
Трек 2 нет в базе данных
Трек 3 нет в базе данных
Трек 4 нет в базе данных
Трек 5 нет в базе данных

Ни одного трека нет в базе AccurateRip

Конец отчёта
Exact Audio Copy V0.99 prebeta 5 from 4. May 2009

Отчёт EAC об извлечении, выполненном 6. сентября 2013, 8:45

Supa T & The Party Animals / Love & Respect

Дисковод: Optiarc DVD RW AD-7280S Adapter: 3 ID: 1

Режим чтения : Достоверность
Использование точного потока : Да
Отключение кэша аудио : Да
Использование указателей C2 : Нет

Коррекция смещения при чтении : 48
Способность читать области Lead-in и Lead-out : Нет
Заполнение пропущенных сэмплов тишиной : Да
Удаление блоков с тишиной в начале и конце : Нет
При вычислениях CRC использовались нулевые сэмплы : Да
Интерфейс : Встроенный Win32-интерфейс для Win NT/2000

Выходной формат : Внутренние WAV-операции
Формат сэмплов : 44.100 Гц; 16 бит; стерео

TOC извлечённого CD

Трек | Старт | Длительность | Начальный сектор | Конечный сектор
---------------------------------------------------------------------
1 | 0:00.00 | 3:57.25 | 0 | 17799
2 | 3:57.25 | 4:02.50 | 17800 | 35999
3 | 8:00.00 | 4:45.55 | 36000 | 57429
4 | 12:45.55 | 6:26.65 | 57430 | 86444

Характеристики диапазона извлечения и сообщения об ошибках

Выбранный диапазон

Имя файла I:\Supa T & The Party Animals - Love & Respect.wav

Пиковый уровень 99.9 %
Качество диапазона 99.9 %
CRC теста 85D74FDB
CRC копии 85D74FDB
Копирование... OK

Ошибок не произошло

AccurateRip: сводка

Трек 1 точное извлечение (доверие 2) [467EE352]
Трек 2 точное извлечение (доверие 2) [A07D3FA2]
Трек 3 точное извлечение (доверие 2) [F4DB153C]
Трек 4 точное извлечение (доверие 2) [1CFCC47E]

Все треки извлечены точно

Конец отчёта
Exact Audio Copy V0.99 prebeta 5 from 4. May 2009

Отчёт EAC об извлечении, выполненном 28. сентября 2010, 21:12

TPA feat. Supa.T / Gotta Jump (Maxi-CD)

Дисковод: ASUS DRW-20B1LT Adapter: 4 ID: 1

Режим чтения : Достоверность
Использование точного потока : Да
Отключение кэша аудио : Да
Использование указателей C2 : Нет

Коррекция смещения при чтении : 6
Способность читать области Lead-in и Lead-out : Нет
Заполнение пропущенных сэмплов тишиной : Да
Удаление блоков с тишиной в начале и конце : Нет
При вычислениях CRC использовались нулевые сэмплы : Да
Интерфейс : Установленный внешний ASPI-интерфейс

Выходной формат : Внутренние WAV-операции
Формат сэмплов : 44.100 Гц; 16 бит; стерео

TOC извлечённого CD

Трек | Старт | Длительность | Начальный сектор | Конечный сектор
---------------------------------------------------------------------
1 | 0:00.32 | 3:52.50 | 32 | 17481
2 | 3:53.07 | 7:05.15 | 17482 | 49371
3 | 10:58.22 | 5:30.60 | 49372 | 74181
4 | 16:29.07 | 7:20.50 | 74182 | 107231

Характеристики диапазона извлечения и сообщения об ошибках

Выбранный диапазон

Имя файла D:\Purity\1997 - Gotta Jump\TPA feat. Supa.T - Gotta Jump (Maxi-CD).wav

Пиковый уровень 100.0 %
Качество диапазона 100.0 %
CRC теста 2CBE0720
CRC копии 2CBE0720
Копирование... OK

Ошибок не произошло

AccurateRip: сводка

Трек 1 точное извлечение (доверие 2) [9D4D8936]
Трек 2 точное извлечение (доверие 2) [959C856A]
Трек 3 точное извлечение (доверие 2) [74171EC8]
Трек 4 точное извлечение (доверие 2) [82BCB8D9]

Все треки извлечены точно

Конец отчёта
Exact Audio Copy V0.99 prebeta 5 from 4. May 2009

Отчёт EAC об извлечении, выполненном 28. сентября 2010, 17:41

Supa T / Be True

Дисковод: ASUS DRW-20B1LT Adapter: 4 ID: 1

Режим чтения : Достоверность
Использование точного потока : Да
Отключение кэша аудио : Да
Использование указателей C2 : Нет

Коррекция смещения при чтении : 6
Способность читать области Lead-in и Lead-out : Нет
Заполнение пропущенных сэмплов тишиной : Да
Удаление блоков с тишиной в начале и конце : Нет
При вычислениях CRC использовались нулевые сэмплы : Да
Интерфейс : Установленный внешний ASPI-интерфейс

Выходной формат : Внутренние WAV-операции
Формат сэмплов : 44.100 Гц; 16 бит; стерео

TOC извлечённого CD

Трек | Старт | Длительность | Начальный сектор | Конечный сектор
---------------------------------------------------------------------
1 | 0:00.00 | 3:52.68 | 0 | 17467
2 | 3:52.68 | 4:10.21 | 17468 | 36238

Характеристики диапазона извлечения и сообщения об ошибках

Выбранный диапазон

Имя файла D:\Purity\Be True\Supa T - Be True.wav

Пиковый уровень 99.2 %
Качество диапазона 100.0 %
CRC теста 05A61E73
CRC копии 05A61E73
Копирование... OK

Ошибок не произошло

AccurateRip: сводка

Трек 1 нет в базе данных
Трек 2 нет в базе данных

Ни одного трека нет в базе AccurateRip

Конец отчёта
Exact Audio Copy V0.99 prebeta 5 from 4. May 2009

Отчёт EAC об извлечении, выполненном 18. января 2011, 20:00

Supa.T / Be True

Дисковод: Optiarc DVD RW AD-7243S Adapter: 4 ID: 1

Режим чтения : Достоверность
Использование точного потока : Да
Отключение кэша аудио : Да
Использование указателей C2 : Нет

Коррекция смещения при чтении : 48
Способность читать области Lead-in и Lead-out : Нет
Заполнение пропущенных сэмплов тишиной : Да
Удаление блоков с тишиной в начале и конце : Нет
При вычислениях CRC использовались нулевые сэмплы : Да
Интерфейс : Установленный внешний ASPI-интерфейс

Выходной формат : Внутренние WAV-операции
Формат сэмплов : 44.100 Гц; 16 бит; стерео

TOC извлечённого CD

Трек | Старт | Длительность | Начальный сектор | Конечный сектор
---------------------------------------------------------------------
1 | 0:00.00 | 3:54.37 | 0 | 17586
2 | 3:54.37 | 4:13.27 | 17587 | 36588
3 | 8:07.64 | 3:54.20 | 36589 | 54158
4 | 12:02.09 | 5:34.66 | 54159 | 79274

Характеристики диапазона извлечения и сообщения об ошибках

Выбранный диапазон

Имя файла D:\Purity\Supa T - Be True\Supa.T - Be True.wav

Пиковый уровень 100.0 %
Качество диапазона 100.0 %
CRC теста 63E645C4
CRC копии 63E645C4
Копирование... OK

Ошибок не произошло

Конец отчёта
Exact Audio Copy V0.99 prebeta 5 from 4. May 2009

Отчёт EAC об извлечении, выполненном 18. июня 2010, 17:29

Supa T / Reggae In The Pop House & Soul

Дисковод: ASUS DRW-20B1LT Adapter: 2 ID: 2

Режим чтения : Достоверность
Использование точного потока : Да
Отключение кэша аудио : Да
Использование указателей C2 : Нет

Коррекция смещения при чтении : 6
Способность читать области Lead-in и Lead-out : Нет
Заполнение пропущенных сэмплов тишиной : Да
Удаление блоков с тишиной в начале и конце : Нет
При вычислениях CRC использовались нулевые сэмплы : Да
Интерфейс : Установленный внешний ASPI-интерфейс

Выходной формат : Пользовательский кодировщик
Выбранный битрейт : 1024 kBit/s
Качество : Высокий
Добавление ID3-тэга : Нет
Утилита сжатия : C:\Program Files\Exact Audio Copy\FLAC\FLAC.EXE
Дополнительные параметры : -8 -V %s

TOC извлечённого CD

Трек | Старт | Длительность | Начальный сектор | Конечный сектор
---------------------------------------------------------------------
1 | 0:00.00 | 4:24.62 | 0 | 19861
2 | 4:24.62 | 3:56.30 | 19862 | 37591
3 | 8:21.17 | 5:37.05 | 37592 | 62871
4 | 13:58.22 | 3:49.08 | 62872 | 80054
5 | 17:47.30 | 4:38.06 | 80055 | 100910
6 | 22:25.36 | 4:44.13 | 100911 | 122223
7 | 27:09.49 | 3:33.21 | 122224 | 138219
8 | 30:42.70 | 3:37.65 | 138220 | 154559
9 | 34:20.60 | 5:22.05 | 154560 | 178714
10 | 39:42.65 | 3:26.44 | 178715 | 194208
11 | 43:09.34 | 3:24.08 | 194209 | 209516
12 | 46:33.42 | 3:51.59 | 209517 | 226900
13 | 50:25.26 | 4:02.36 | 226901 | 245086
14 | 54:27.62 | 3:44.65 | 245087 | 261951

Характеристики диапазона извлечения и сообщения об ошибках

Выбранный диапазон

Имя файла E:\Supa T - Reggae In The Pop House & Soul.wav

Пиковый уровень 100.0 %
Качество диапазона 100.0 %
CRC теста F05AAF73
CRC копии F05AAF73
Копирование... OK

Ошибок не произошло

Конец отчёта

------------------------------------------------------------

Exact Audio Copy V0.99 prebeta 5 from 4. May 2009

Отчёт EAC об извлечении, выполненном 18. июня 2010, 18:12

Supa T / Reggae In The Pop House & Soul

Дисковод: ASUS DRW-20B1LT Adapter: 2 ID: 2

Режим чтения : Достоверность
Использование точного потока : Да
Отключение кэша аудио : Да
Использование указателей C2 : Нет

Коррекция смещения при чтении : 6
Способность читать области Lead-in и Lead-out : Нет
Заполнение пропущенных сэмплов тишиной : Да
Удаление блоков с тишиной в начале и конце : Нет
При вычислениях CRC использовались нулевые сэмплы : Да
Интерфейс : Установленный внешний ASPI-интерфейс

Выходной формат : Пользовательский кодировщик
Выбранный битрейт : 1024 kBit/s
Качество : Высокий
Добавление ID3-тэга : Нет
Утилита сжатия : C:\Program Files\Exact Audio Copy\FLAC\FLAC.EXE
Дополнительные параметры : -8 -V %s

TOC извлечённого CD

Трек | Старт | Длительность | Начальный сектор | Конечный сектор
---------------------------------------------------------------------
1 | 0:00.00 | 4:24.62 | 0 | 19861
2 | 4:24.62 | 3:56.30 | 19862 | 37591
3 | 8:21.17 | 5:37.05 | 37592 | 62871
4 | 13:58.22 | 3:49.08 | 62872 | 80054
5 | 17:47.30 | 4:38.06 | 80055 | 100910
6 | 22:25.36 | 4:44.13 | 100911 | 122223
7 | 27:09.49 | 3:33.21 | 122224 | 138219
8 | 30:42.70 | 3:37.65 | 138220 | 154559
9 | 34:20.60 | 5:22.05 | 154560 | 178714
10 | 39:42.65 | 3:26.44 | 178715 | 194208
11 | 43:09.34 | 3:24.08 | 194209 | 209516
12 | 46:33.42 | 3:51.59 | 209517 | 226900
13 | 50:25.26 | 4:02.36 | 226901 | 245086
14 | 54:27.62 | 3:44.65 | 245087 | 261951

Характеристики диапазона извлечения и сообщения об ошибках

Выбранный диапазон

Имя файла E:\Supa T - Reggae In The Pop House & Soul\Supa T - Reggae In The Pop House & Soul.wav

Пиковый уровень 100.0 %
Качество диапазона 100.0 %
CRC теста F05AAF73
CRC копии F05AAF73
Копирование... OK

Ошибок не произошло

Конец отчёта
Exact Audio Copy V0.99 prebeta 5 from 4. May 2009

Отчёт EAC об извлечении, выполненном 1. августа 2013, 15:35

Supa-T / Reggae In The Pop House & Soul

Дисковод: Optiarc DVD RW AD-7280S Adapter: 3 ID: 1

Режим чтения : Достоверность
Использование точного потока : Да
Отключение кэша аудио : Да
Использование указателей C2 : Нет

Коррекция смещения при чтении : 48
Способность читать области Lead-in и Lead-out : Нет
Заполнение пропущенных сэмплов тишиной : Да
Удаление блоков с тишиной в начале и конце : Нет
При вычислениях CRC использовались нулевые сэмплы : Да
Интерфейс : Встроенный Win32-интерфейс для Win NT/2000

Выходной формат : Внутренние WAV-операции
Формат сэмплов : 44.100 Гц; 16 бит; стерео

TOC извлечённого CD

Трек | Старт | Длительность | Начальный сектор | Конечный сектор
---------------------------------------------------------------------
1 | 0:00.00 | 4:23.47 | 0 | 19771
2 | 4:23.47 | 5:36.52 | 19772 | 45023
3 | 10:00.24 | 3:47.28 | 45024 | 62076
4 | 13:47.52 | 4:37.08 | 62077 | 82859
5 | 18:24.60 | 4:46.30 | 82860 | 104339
6 | 23:11.15 | 3:39.13 | 104340 | 120777
7 | 26:50.28 | 3:32.64 | 120778 | 136741
8 | 30:23.17 | 3:37.30 | 136742 | 153046
9 | 34:00.47 | 5:21.54 | 153047 | 177175
10 | 39:22.26 | 3:25.24 | 177176 | 192574
11 | 42:47.50 | 3:23.58 | 192575 | 207857
12 | 46:11.33 | 3:51.35 | 207858 | 225217
13 | 50:02.68 | 3:46.12 | 225218 | 242179
14 | 53:49.05 | 4:10.13 | 242180 | 260942

Характеристики диапазона извлечения и сообщения об ошибках

Выбранный диапазон

Имя файла I:\Supa-T - Reggae In The Pop House & Soul.wav

Пиковый уровень 98.8 %
Качество диапазона 99.9 %
CRC теста F5046ED2
CRC копии F5046ED2
Копирование... OK

Ошибок не произошло

AccurateRip: сводка

Трек 1 нет в базе данных
Трек 2 нет в базе данных
Трек 3 нет в базе данных
Трек 4 нет в базе данных
Трек 5 нет в базе данных
Трек 6 нет в базе данных
Трек 7 нет в базе данных
Трек 8 нет в базе данных
Трек 9 нет в базе данных
Трек 10 нет в базе данных
Трек 11 нет в базе данных
Трек 12 нет в базе данных
Трек 13 нет в базе данных
Трек 14 нет в базе данных

Ни одного трека нет в базе AccurateRip

Конец отчёта
Доп. информация: Полная дискография Supa T (Trevor Taylor), первого вокалиста Bad Boys Blue. Впервые в сети! Собственные рипы с немецких и испанских дисков
http://unionpeer.org/forum/viewtopic.php?t=3310705 Неизданный альбом Supa T - Second Life
http://unionpeer.org/forum/viewtopic.php?t=2972319 Дискография Supa T and TPA в mp3 320 кбит/с
http://unionpeer.org/forum/viewtopic.php?t=3021422 Дискография Supa T and TPA в lossless
http://unionpeer.org/forum/viewtopic.php?t=3024459 2 сингла проекта Тревора Mondo Club
http://unionpeer.org/forum/viewtopic.php?t=3123918 Mondo Club Discography (lossless)
http://unionpeer.org/forum/viewtopic.php?t=2972290 Еще один сингл с вокалом Тревора Avancada - Ha Deng
http://unionpeer.org/forum/viewtopic.php?t=3042465 Дискография группы Umoya в mp3
http://unionpeer.org/forum/viewtopic.php?t=3179686 Дискография Umoya в lossless
http://unionpeer.org/forum/viewtopic.php?t=3053509 Видео на песню Supa T - Love & Respect
http://unionpeer.org/forum/viewtopic.php?t=3111889 Bang Gang - I Like To Move It
http://unionpeer.org/forum/viewtopic.php?t=3026260 Street Noise - Our Problem (mp3 320 kbps)
http://unionpeer.org/forum/viewtopic.php?t=3125737 Street Noise - Our Problem (Lossless)
http://unionpeer.org/forum/viewtopic.php?t=3308131 TPA feat. XL and Supa.T - It''s a Rap Thing (Lossless)
Тревор Тэйлор ( Trevor Oliver Taylor) родился 11 января 1958 года в Montego Bay, на острове Ямайка. Когда ему было 14 лет, родители Тревора переехали с Ямайки в Европу. Тревор - типичный rasta-man; до 1984 года он играл вместе с Эдди Грантом и группой UB 40. Его кумир - Боб Марли. Хобби - футбол и кулинария. Причем последнее "увлечение" некоторое время было основным источником доходов: в 1978 году Тревор работал шеф-поваром в ресторане "Holiday Inn" в Бирмингеме, а затем - в кельнском ресторане "Stummel".

Группа «Bad Boys Blue» возникла летом 1984 года в городе Кёльне (Германия) после того, как авторы и продюсеры Тони Хендрик и Карен ван Хаарен (Карен Хартманн), владеющие независимым рекорд-лейблом «Coconut Records», стали искать исполнителей для записи сингла «L.O.V.E. In My Car». Специально для этой песни они решили инициировать совершенно новый проект. Первоначально поиск исполнителей вели в Лондоне, но затем кто-то из знакомых порекомендовал продюсерам кандидатуру выходца из США Эндрю Томаса (Andrew Thomas), музыканта и диджея, живущего в Кёльне. Эндрю в свою очередь познакомил продюсеров с Тревором Тэйлором (Trevor Taylor), а Тревор привёл в группу Джона МакИнерни (John McInerney).

Дебютный сингл «L.O.V.E. In My Car» группа выпустила в сентябре 1984 года. Ведущий вокал принадлежал Эндрю Томасу. Пластинка пользовалась определённым успехом, но в чарты не попала.

Настоящий успех к трио пришёл только весной 1985 года, когда следующий сингл «You''re A Woman» произвёл настоящий фурор во многих европейских странах, моментально оказавшись в первой десятке лучших песен. В Германии сингл достиг восьмого места и почти четыре месяца не покидал немецкий Top20. В этом же году был выпущен первый студийный альбом «Hot Girls — Bad Boys». На нём лидирующий вокал в большинстве песен (кроме «L.O.V.E. In My Car») принадлежал Тревору Тэйлору. Практически сразу же после выхода дебютного альбома «Bad Boys Blue» получили статус культового коллектива на территории всего бывшего Советского Союза наряду с другой немецкой группой «Modern Talking».

В 1987 году во время записи сингла «Come Back And Stay», продюсеры приняли решение сменить ведущего вокалиста на Джона МакИнерни. С этих пор своеобразный вокал Джона стал визитной карточкой «Bad Boys Blue». Перемены привели к проблемам внутри группы, вследствие чего в 1989 году Тэйлор оставил коллектив, чтобы заняться сольной карьерой.

После ухода из группы Тревор пробовал сниматься в кино, участвовал в различных музыкальных проектах от транса до регги. В 1990 вышел сингл регги-проекта Street Noise - Our Problem, где ведущий вокал принадлежал Тревору Тэйлору. В 1991 году Тревор был участником Temper Temper в качестве гитариста. В 1993 году Тревор исполнил вокальные партии для сингла Euro-House проекта Osazuwas – Free. С 1996 года Тревор под псевдонимом Supa T начал записываться с группой The Party Animals, один за другим вышли регги-сингл Love and Respect, ставший летним хитом года в Испании и долгое время державшийся в верхних строчках испанских хит-парадов, и сингл Gotta Jump в стиле House, одноименные композиции с которых впоследствии вошли в сольный альбом Тревора Тэйлора Supa T – Reggae In The Pop House & Soul (1998). В том же 1998 году Тревор участвовал в записи сингла Chocolate Milk - Harddrummer (Driving Me Crazy) (стиль – progressive trance). За ним следует сингл транс-проектов Avancada - Ha Deng / Tribal Nation, Bang Gang – I Like To Move It (2001), и Mondo Club – Don’t Worry Be Happy и Sex Up My Life. Также Тревор выступал с регги-группами Umoya и The Reggae Cracks.

19-го января 2008 года после сердечного приступа Тревор Тэйлор скончался. Светлая память!
ПОЖАЛУЙСТА, ОСТАВАЙТЕСЬ НА РАЗДАЧЕ КАК МОЖНО ДОЛЬШЕ!))

Трекер:  [ 25-Сен-2013 07:51 ]

  

Скачать .torrent

Размер .torrent файла 21 KB


Размер: 1.7 GB
Хэш (hash) релиза: e83891fe6847b744972295533036a1d60cc84442

Еще никто не оставлял запись к записи скачать торрент Supa. T {Trevor Taylor ex Bad Boys Blue} - Дискография - 1995-1999, FLAC . Будь первым!

!Обратная связь