Скачать через торрент музыку UB40 - Getting Over the Storm - 2013, FLAC бесплатно без регистрации torrent

Если у вас наблюдаются проблемы со скриншотами, переходом по ссылками, скачиванием торрентов - проблемы в блокировщике рекламы AdBlock. #хорошегоДня!


Статистика раздачи
Размер:  339 MB   |    Зарегистрирован:  3 года 11 месяцев   |    .torrent скачан:  126 раз   |   
Раздают:  1  
   
Загрузка...
 
Автор Сообщение

Polarnik

avatar Polarnik


UB40 / Getting Over the Storm

Жанр: Reggae
Год издания: 2013
Издатель (лейбл): Virgin Records
Страна: UK
Аудиокодек: FLAC (*.flac)
Тип рипа: tracks+.cue
Битрейт аудио: lossless
Продолжительность: 51:52
Источник (релизер): what.cd
Наличие сканов в содержимом раздачи: нет
Треклист:
01. Midnight Rider
02. Just Whats Killing Me
03. Getting Over The Storm
04. Blue Bilet Doux
05. If You Ever Have Forever
06. Crying Time
07. How will I get through this
08. He’ll Have To Go
09. Blue Eyes Crying In The Rain
10. I Did What I Did
11. On The Other Hand
12. Poor Man
13. I Didn’t Know
Exact Audio Copy V1.0 beta 3 from 29. August 2011

EAC uitlezen log bestand van 1. September 2013, 14:48

UB40 / Getting Over The Storm

gebruikt loopwerk : PIONEER DVD-RW DVR-219L Adapter: 3 ID: 0

Lees mode : : VeiligGebruik accurate stream : JaAudio buffer uitgeschakeld : NeenMaak gebruik van C2 pointers : Ja

Lees-offset correctie : : 6Overlees in Lead-In en Lead-Out : NeenVul ontbrekende offset samples met stiltes aan : JaWis stilte blokken aan het begin en einde : NeenNul samples gebruikt in CRC berekeningen : JaGebruikte interface : Native Win32 interface voor Win NT & 2000

Gebruik uitgave formaat : : Interne WAV RoutinesSample formaat : 44.100 Hz; 16 Bit; Stereo

TOC van de uitgelezen CD

Track | Start | Lengte | Start sector | Eind sector ---------------------------------------------------------- 1 | 0:00.00 | 4:09.29 | 0 | 18703 2 | 4:09.29 | 4:37.63 | 18704 | 39541 3 | 8:47.17 | 3:26.45 | 39542 | 55036 4 | 12:13.62 | 3:27.07 | 55037 | 70568 5 | 15:40.69 | 4:24.67 | 70569 | 90435 6 | 20:05.61 | 3:15.01 | 90436 | 105061 7 | 23:20.62 | 4:10.42 | 105062 | 123853 8 | 27:31.29 | 4:17.67 | 123854 | 143195 9 | 31:49.21 | 3:26.14 | 143196 | 158659 10 | 35:15.35 | 3:14.28 | 158660 | 173237 11 | 38:29.63 | 3:50.53 | 173238 | 190540 12 | 42:20.41 | 4:43.67 | 190541 | 211832 13 | 47:04.33 | 4:45.09 | 211833 | 233216

Bereikstatus en fouten

Geselecteerd bereik

Bestands naam F:\POST 2\UB40 - Getting Over The Storm (EAC)\UB40 - Getting Over The Storm.wav

Piek niveau 98.8 % Uitlees snelheid 9.0 X Bereikskwaliteit 99.9 % Kopie CRC B7DCCD5B Kopie OK

Geen fouten opgetreden

AccurateRip samenvatting

Track 1 niet aanwezig in databaseTrack 2 niet aanwezig in databaseTrack 3 niet aanwezig in databaseTrack 4 niet aanwezig in databaseTrack 5 niet aanwezig in databaseTrack 6 niet aanwezig in databaseTrack 7 niet aanwezig in databaseTrack 8 niet aanwezig in databaseTrack 9 niet aanwezig in databaseTrack 10 niet aanwezig in databaseTrack 11 niet aanwezig in databaseTrack 12 niet aanwezig in databaseTrack 13 niet aanwezig in database

Geen enkele Track aanwezig in AccurateRip database

Einde status report
PERFORMER "UB40"TITLE "Getting Over The Storm"FILE "01 Midnight Rider.flac" WAVE TRACK 01 AUDIO TITLE "Midnight Rider" PERFORMER "UB40" INDEX 01 00:00:00FILE "02 I''m Pretty Sure That''s Just What''s Killing Me.flac" WAVE TRACK 02 AUDIO TITLE "I''m Pretty Sure That''s Just What''s Killing Me" PERFORMER "UB40" INDEX 01 00:00:00FILE "03 Getting Over The Storm.flac" WAVE TRACK 03 AUDIO TITLE "Getting Over The Storm" PERFORMER "UB40" INDEX 01 00:00:00FILE "04 Blue Bilet Doux.flac" WAVE TRACK 04 AUDIO TITLE "Blue Bilet Doux" PERFORMER "UB40" INDEX 01 00:00:00FILE "05 If You Ever Have Forever In Mind.flac" WAVE TRACK 05 AUDIO TITLE "If You Ever Have Forever In Mind" PERFORMER "UB40" INDEX 01 00:00:00FILE "06 Crying Time.flac" WAVE TRACK 06 AUDIO TITLE "Crying Time" PERFORMER "UB40" INDEX 01 00:00:00FILE "07 How Will I Get Through This One.flac" WAVE TRACK 07 AUDIO TITLE "How Will I Get Through This One" PERFORMER "UB40" INDEX 01 00:00:00FILE "08 He''ll Have To Go.flac" WAVE TRACK 08 AUDIO TITLE "He''ll Have To Go" PERFORMER "UB40" INDEX 01 00:00:00FILE "09 Blue Eyes Crying In The Rain.flac" WAVE TRACK 09 AUDIO TITLE "Blue Eyes Crying In The Rain" PERFORMER "UB40" INDEX 01 00:00:00FILE "10 I Did What I Did.flac" WAVE TRACK 10 AUDIO TITLE "I Did What I Did " PERFORMER "UB40" INDEX 01 00:00:00FILE "11 On The Other Hand.flac" WAVE TRACK 11 AUDIO TITLE "On The Other Hand " PERFORMER "UB40" INDEX 01 00:00:00FILE "12 How Can Poor Men Stand Such Times And Live.flac" WAVE TRACK 12 AUDIO TITLE "How Can Poor Men Stand Such Times And Live" PERFORMER "UB40" INDEX 01 00:00:00FILE "13 I Didn''t Know That I.flac" WAVE TRACK 13 AUDIO TITLE "I Didn''t Know That I" PERFORMER "UB40" INDEX 01 00:00:00


Трекер:  [ 25-Сен-2013 07:52 ]

  

Скачать .torrent

Размер .torrent файла 15 KB


Размер: 339 MB
Хэш (hash) релиза: 55fa98861818cbff6812b3db5f70b21b3165c706

Еще никто не оставлял запись к записи скачать торрент UB40 - Getting Over the Storm - 2013, FLAC . Будь первым!

!Обратная связь