Скачать порно через торрент Tentacle and Witches Tentakuru ando Uicchizu UnionPeer.org бесплатно онлайн HD качество

Скачать новое порно 2015, 2014 новинки через торрент UnionPeer.org

Порно торрент бесплатно ЮнионПир.орг

Если у вас наблюдаются проблемы со скриншотами, переходом по ссылками, скачиванием торрентов - проблемы в блокировщике рекламы AdBlock. #хорошегоДня!


Статистика раздачи
Размер:  9.46 GB   |    Зарегистрирован:  4 года 2 месяца   |    .torrent скачан:  522 раза   |   
Раздают:  1  
   
Загрузка...
 
Автор Сообщение

LinGr

avatar LinGr



Tentacle and Witches / Tentakuru ando Uicchizu
テンタクル アンド ウィッチーズ
Щупальца и Ведьмы / Тентакли и Ведьмы

Год производства: 2011 г.
Жанр: Anal sex, Big tits, Group sex, Oral sex, X-Ray, Mystic, School, Rape, Tentacles, Witch
Серии: ep. 1-4 of 4
Продолжительность: 4х~29 min
Цензура: Есть

Озвучка: Оригинальная (Японский)

Режиссер: Kaidou Tsukasa
Автор оригинала: Lilith
Студия: Pixy

Описание RUS: Точибана Ичиро - главный герой, является обычным студентом, однако он знает тайну. В доме на холме раньше жили ведьмы и теперь этот дом принадлежит учительнице Иошико! Иошико занимающуюся с главным героем, вдруг и оказывается той самой ведьмой живущей в доме на холме. Однажды ночью, главный герой идет в дом на холме, чтобы увидеть, чем занимается его учительница и увидеть её колдовство.

Описание ENG: Morino Yuuko is an ordinary teacher at first sight, who owns a mansion on a hill. But she is in fact a witch. Her secret is known by Tachibana Ichirou, one of her pupils. One day he decides to pay her a visit to see her magic...

Информационные ссылки: AniDB - World Art - ХентайМаг

Качество видео: 4x DVD5
Формат видео: DVD Video
Видео кодек: MPEG2
Аудио кодек: AC3
Видео: 720х480, (16:9), 29,970 кадров/сек, ~ 6500 Кбит/сек, NTSC
Аудио: JAP, AC-3, 2 канала, 192 Кбит/сек, 48,0 КГц
Общее
Полное имя : J:\VIDEO_TS\VTS_02_1.VOB
Формат : MPEG-PS
Размер файла : 1024 Мбайт
Продолжительность : 20 м.
Режим общего битрейта : Переменный
Общий поток : 6830 Кбит/сек

Видео
Идентификатор : 224 (0xE0)
Формат : MPEG Video
Версия формата : Version 2
Профиль формата : Main@Main
Параметр BVOP формата : Да
Параметр матрицы формата : Выборочная
Параметр GOP формата : Variable
Продолжительность : 20 м.
Вид битрейта : Переменный
Битрейт : 6502 Кбит/сек
Максимальный битрейт : 9800 Кбит/сек
Ширина : 720 пикселей
Высота : 480 пикселей
Соотношение сторон : 16:9
Частота кадров : 29,970 кадров/сек
Стандарт вещания : NTSC
Цветовое пространство : YUV
Субдискретизация насыщенности : 4:2:0
Битовая глубина : 8 бит
Тип развёртки : Чересстрочная
Порядок развёртки : Верхнее поле первое
Метод сжатия : С потерями
Бит/(Пиксели*Кадры) : 0.628
Временной код первого кадра : 01:00:00:00
Оригинал временного кода : Group of pictures header
Размер потока : 975 Мбайт (95%)

Аудио
Идентификатор : 189 (0xBD)-128 (0x80)
Формат : AC-3
Формат/Информация : Audio Coding 3
Расширение режима : CM (complete main)
Параметр Endianness формата : Big
Режим смешивания : DVD-Video
Продолжительность : 20 м.
Вид битрейта : Постоянный
Битрейт : 192 Кбит/сек
Каналы : 2 канала
Расположение каналов : Front: L R
Частота : 48,0 КГц
Битовая глубина : 16 бит
Метод сжатия : С потерями
Размер потока : 28,8 Мбайт (3%)

Меню



Трекер:  [ 06-Сен-2013 19:37 ]

  

Скачать .torrent

Размер .torrent файла 24 KB


Размер: 9.46 GB
Хэш (hash) релиза: efa121c1130578bee100bc8c4921288dc15e1a32

bot

Топик был перенесен в форум Хентай | С цензурой

Перенес LinGr

Хотите добавить комментарий к записи скачать торрент Tentacle and Witches Tentakuru ando Uicchizu

!Обратная связь