Скачать через торрент музыку Tosca - Honey бесплатно без регистрации torrent

Если у вас наблюдаются проблемы со скриншотами, переходом по ссылками, скачиванием торрентов - проблемы в блокировщике рекламы AdBlock. #хорошегоДня!


Статистика раздачи
Размер:  277 MB   |    Зарегистрирован:  6 лет 9 месяцев   |    .torrent скачан:  34 раза   |   
Раздают:  1  
   
Загрузка...
 
Автор Сообщение

AqvaGen


Tosca - Honey

Год выпуска: 2002
Жанр: Trance
Продолжительность: 5:58
Платформа: HD

Качество: HDTV
Формат: MPEG-TS
Видео кодек: H.264
Аудио кодек: MP2, AC-3
Видео: MPEG4 Video (H264) 1920x1080 25.00fps, 5 448 Kbps
Аудио 1: MPEG Audio 48000Hz stereo 192 Kbps
Аудио 2: Dolby AC-3 48000Hz stereo 384 Kbps
General
ID : 10
Complete name : C:\HD_out\Tosca - Honey_bySat.ts
Format : MPEG-TS
File size : 277 MiB
Duration : 5mn 58s
Overall bit rate : 6 474 Kbps

Video
ID : 1600 (0x640)
Menu ID : 60 (0x3C)
Format : AVC
Format/Info : Advanced Video Codec
Format profile : Main@L4.0
Format settings, CABAC : Yes
Format settings, ReFrames : 4 frames
Duration : 5mn 58s
Bit rate : 5 448 Kbps
Width : 1 920 pixels
Height : 1 080 pixels
Display aspect ratio : 16/9
Frame rate : 25.000 fps
Standard : Component
Resolution : 24 bits
Colorimetry : 4:2:0
Scan type : Interlaced
Scan order : Top Field First
Bits/(Pixel*Frame) : 0.105
Stream size : 233 MiB (84%)

Audio #1
ID : 1610 (0x64A)
Menu ID : 60 (0x3C)
Format : MPEG Audio
Format version : Version 1
Format profile : Layer 2
Duration : 5mn 58s
Bit rate mode : Constant
Bit rate : 192 Kbps
Channel(s) : 2 channels
Sampling rate : 48.0 KHz
Resolution : 16 bits
Video delay : 51ms
Stream size : 8.20 MiB (3%)

Audio #2
ID : 1620 (0x654)
Menu ID : 60 (0x3C)
Format : AC-3
Format/Info : Audio Coding 3
Duration : 5mn 58s
Bit rate mode : Constant
Bit rate : 384 Kbps
Channel(s) : 2 channels
Channel positions : L R
Sampling rate : 48.0 KHz
Video delay : 6ms
Stream size : 16.4 MiB (6%)
Language : std
Language, more info : Clean effects


Трекер:  [ 13-Янв-2011 13:18 ]

  

Скачать .torrent

Размер .torrent файла 11 KB


Размер: 277 MB
Хэш (hash) релиза: 800b041820435739d5bb23d3ecf18f0d1b11ca44

bot

Топик был перенесен в форум Электронная музыка (video)

Перенес AqvaGen

Хотите добавить комментарий к записи скачать торрент Tosca - Honey

!Обратная связь