Defqon.1 No Time to Waste torrent

, , - AdBlock. #!


21.89 GB   |    :  6 9    |    .torrent :  44    |   
1  
   
...
 

AqvaGen


Defqon.1 No Time to Waste (2010)

: HardStyle/HardCore
:
: 2010
: 01:48:11

:
Defqon.1 - Q-dance event, Almere Strand : , , , , .

, hard dance , Hardstyle, Techno, Hardcore, Hardtrance, Jumpstyle, Oldskool, French Tek, . . Q-dance .

9 Defqon.1 hard dance , . hardcore , , Q-dance.

Q-danc X-Qlusive, , Q-dance , . hardcore !

, , , .

English
This unique 3 disc special edition release on CD,DVD & Blu-ray contains a live DJ set by Noisecontrollers on CD + the live event registration of Defqon 1 "No Time To Waste" held on Almere strand + exclusive backstage footage and a lot of extra. This exclusive release gives you a brilliant overview of this mind-blowing festival. This 3 disc special edition comes in a 8 page digipack and is produced in FULL HD (1080P) and contains DTS-HD master audio.

: Blu-ray
: BDMV

: MPEG-4 AVC Video / 1920x1080 (1080i) / 16434 kbps / 16:9 / High Profile 4.1
#1: English / DTS-HD Master Audio / 5.1 / 48 kHz / 3308 kbps / 16-bit (DTS Core: 5.1 / 48 kHz / 1509 kbps / 16-bit)
#2: English / Dolby Digital Audio / 5.1 / 48 kHz / 448 kbps
01. DJ Duro & The Prophet Shizzle My Dizzle DJ Duro & The Prophet - Shizzle My Dizzle
02. Toneshifterz & Nitrouz Da BidNiz Toneshifterz & Nitrouz - Da BidNiz
03. Headhunterz & Wildstylez vs. N Tonight Headhunterz & Wildstylez vs. N - Tonight
04. Noisecontrollers Faster 'n Further Noisecontrollers - Faster 'n Further
05. Headhunterz Subsonic Headhunterz - Subsonic
06. Noisecontrollers Promises Noisecontrollers - Promises
07. Noisecontrollers Summer In The City Noisecontrollers - Summer In The City
08. Noisecontrollers & Toneshifter Jaydee Noisecontrollers & Toneshifter - Jaydee
09. Noisecontrollers Marlboro Man Noisecontrollers - Marlboro Man
10. Toneshifterz Elektro Shock Toneshifterz - Elektro Shock
11. Noisecontrollers The Darkside Of Emotions Noisecontrollers - The Darkside Of Emotions
12. Noisecontrollers Attack Again Noisecontrollers - Attack Again
13. Noisecontrollers Club Jumper Noisecontrollers - Club Jumper
14. Killer Clown Silentium Killer Clown - Silentium
15. Noisecontrollers Shreek Noisecontrollers - Shreek
16. Noisecontrollers & Zany Paranoid Noisecontrollers & Zany - Paranoid
17. Wildstylez No Time To Waiste Wildstylez - No Time To Waiste
18. Donkey Rollers D.O.N.K.E.Y. Donkey Rollers - D.O.N.K.E.Y.
19. Headhunterz Forever Az One Headhunterz - Forever Az One
20. Noisecontrollers Summer In The City Noisecontrollers - Summer In The City
21. Showtek We Live For The Music
Disc Title: DEFQON_2010
Disc Size: 23504459064 bytes
Protection: AACS
BD-Java: No
BDInfo: 0.5.6

Notes:

BDINFO HOME:
Cinema Squid
http://www.cinemasquid.com/blu-ray/tools/bdinfo

INCLUDES FORUMS REPORT FOR:
AVS Forum Blu-ray Audio and Video Specifications Thread
http://www.avsforum.com/avs-vb/showthread.php?t=1155731

********************
PLAYLIST: 00000.MPLS
********************

<--- BEGIN FORUMS PASTE --->

:

Total Video
Title Codec Length Movie Size Disc Size Bitrate Bitrate Main Audio Track Secondary Audio Track
----- ------ ------- -------------- -------------- ------- ------- ------------------ ---------------------
00000.MPLS AVC 1:48:11 17376282624 23504459064 21,41 16,43 DTS-HD Master 5.1 3308Kbps (48kHz/16-bit) DD AC3 5.1 448Kbps[/spoiler]
[code]DISC INFO:

Disc Title: DEFQON_2010
Disc Size: 23504459064 bytes
Protection: AACS
BD-Java: No
BDInfo: 0.5.6

PLAYLIST REPORT:

Name: 00000.MPLS
Length: 1:48:11 (h:m:s)
Size: 17376282624 bytes
Total Bitrate: 21,41 Mbps

VIDEO:

Codec Bitrate Description
----- ------- -----------
MPEG-4 AVC Video 16434 kbps 1080i / 25 fps / 16:9 / High Profile 4.1

AUDIO:

Codec Language Bitrate Description
----- -------- ------- -----------
DTS-HD Master Audio English 3308 kbps 5.1 / 48 kHz / 3308 kbps / 16-bit (DTS Core: 5.1 / 48 kHz / 1509 kbps / 16-bit)
Dolby Digital Audio English 448 kbps 5.1 / 48 kHz / 448 kbps

FILES:

Name Time In Length Size Total Bitrate
---- ------- ------ ---- -------------
00000.M2TS 0:00:00.000 1:48:11.960 17376282624 21413

CHAPTERS:

Number Time In Length Avg Video Rate Max 1-Sec Rate Max 1-Sec Time Max 5-Sec Rate Max 5-Sec Time Max 10Sec Rate Max 10Sec Time Avg Frame Size Max Frame Size Max Frame Time
------ ------- ------ -------------- -------------- -------------- -------------- -------------- -------------- -------------- -------------- -------------- --------------
1 0:00:00.000 0:03:12.519 14068 kbps 27585 kbps 00:02:30.080 21447 kbps 00:02:35.399 20944 kbps 00:02:35.080 70326 bytes 250154 bytes 00:02:25.639
2 0:03:12.519 0:04:24.039 17415 kbps 28293 kbps 00:07:17.640 24758 kbps 00:07:17.640 23268 kbps 00:07:16.000 87076 bytes 230913 bytes 00:04:13.039
3 0:07:36.559 0:03:39.640 17360 kbps 27703 kbps 00:10:30.400 23378 kbps 00:10:57.280 22227 kbps 00:10:52.120 86799 bytes 218069 bytes 00:08:20.839
4 0:11:16.200 0:03:17.480 19217 kbps 29663 kbps 00:13:18.880 26507 kbps 00:12:04.359 25136 kbps 00:12:03.920 96087 bytes 239017 bytes 00:12:09.200
5 0:14:33.680 0:01:43.039 13389 kbps 20018 kbps 00:16:08.640 17709 kbps 00:16:08.359 15766 kbps 00:16:02.840 66945 bytes 199974 bytes 00:15:49.440
6 0:16:16.720 0:02:14.399 14248 kbps 25383 kbps 00:17:36.160 21353 kbps 00:17:33.200 18837 kbps 00:17:27.680 71238 bytes 212292 bytes 00:17:32.560
7 0:18:31.119 0:02:49.960 16559 kbps 24554 kbps 00:21:13.160 22182 kbps 00:21:10.000 20684 kbps 00:21:08.400 82797 bytes 209869 bytes 00:19:07.400
8 0:21:21.080 0:04:23.200 16742 kbps 27168 kbps 00:25:17.600 23157 kbps 00:23:01.080 21212 kbps 00:22:56.800 83711 bytes 240438 bytes 00:23:42.240
9 0:25:44.280 0:01:55.000 21413 kbps 30145 kbps 00:26:21.520 25460 kbps 00:26:17.960 23826 kbps 00:25:57.159 107063 bytes 240140 bytes 00:26:18.360
10 0:27:39.280 0:03:29.039 16847 kbps 28283 kbps 00:28:11.159 24193 kbps 00:28:08.760 22865 kbps 00:28:03.840 84234 bytes 236320 bytes 00:28:11.600
11 0:31:08.320 0:02:20.679 16144 kbps 26600 kbps 00:32:02.280 22767 kbps 00:32:00.920 20925 kbps 00:31:55.880 80720 bytes 211557 bytes 00:31:44.840
12 0:33:29.000 0:04:27.119 17874 kbps 29001 kbps 00:34:41.400 23775 kbps 00:34:39.719 21190 kbps 00:33:48.960 89368 bytes 202551 bytes 00:37:06.160
13 0:37:56.120 0:02:09.840 20987 kbps 29096 kbps 00:38:20.440 25952 kbps 00:38:40.480 24966 kbps 00:38:40.360 104936 bytes 262745 bytes 00:38:21.120
14 0:40:05.960 0:02:55.519 15570 kbps 27794 kbps 00:41:48.719 22213 kbps 00:42:29.719 19107 kbps 00:42:24.760 77848 bytes 208739 bytes 00:40:47.080
15 0:43:01.480 0:11:45.559 16585 kbps 28497 kbps 00:46:12.800 26579 kbps 00:46:10.320 23836 kbps 00:46:05.280 82924 bytes 206614 bytes 00:45:05.040
16 0:54:47.040 0:04:21.560 15705 kbps 28157 kbps 00:56:48.840 23265 kbps 00:55:21.080 22470 kbps 00:55:16.760 78524 bytes 221608 bytes 00:58:35.920
17 0:59:08.600 0:02:11.000 19949 kbps 30028 kbps 00:59:23.160 27546 kbps 00:59:21.400 24909 kbps 00:59:17.480 99746 bytes 266625 bytes 00:59:23.760
18 1:01:19.600 0:04:50.359 15332 kbps 25355 kbps 01:04:51.640 22607 kbps 01:04:26.680 20735 kbps 01:04:25.200 76660 bytes 204982 bytes 01:04:12.479
19 1:06:09.960 0:01:03.479 17733 kbps 27471 kbps 01:06:47.560 21404 kbps 01:06:47.439 19676 kbps 01:06:18.120 88664 bytes 183041 bytes 01:06:48.520
20 1:07:13.439 0:02:09.640 16923 kbps 25058 kbps 01:07:46.760 21568 kbps 01:07:45.160 20607 kbps 01:09:03.800 84614 bytes 189527 bytes 01:08:56.600
21 1:09:23.080 0:02:10.399 17217 kbps 26797 kbps 01:10:14.080 22906 kbps 01:10:12.840 20302 kbps 01:10:08.760 86083 bytes 216525 bytes 01:10:24.960
22 1:11:33.479 0:08:52.080 16048 kbps 29939 kbps 01:14:58.800 24116 kbps 01:12:03.600 21583 kbps 01:12:01.439 80242 bytes 230636 bytes 01:13:44.800
23 1:20:25.560 0:06:50.000 14760 kbps 27891 kbps 01:26:45.160 22981 kbps 01:26:45.080 21461 kbps 01:26:37.720 73798 bytes 281274 bytes 01:27:08.360
24 1:27:15.560 0:20:55.119 15727 kbps 28958 kbps 01:41:38.120 23217 kbps 01:44:48.960 20938 kbps 01:44:48.080 78636 bytes 288930 bytes 01:31:43.000
25 1:48:10.680 0:00:01.279 80 kbps 85 kbps 01:48:10.920 0 kbps 00:00:00.000 0 kbps 00:00:00.000 414 bytes 1472 bytes 01:48:11.120

STREAM DIAGNOSTICS:

File PID Type Codec Language Seconds Bitrate Bytes Packets
---- --- ---- ----- -------- -------------- -------------- ------------- -----
00000.M2TS 4113 (0x1011) 0x1B AVC 6491,840 16434 13335831401 72654056
00000.M2TS 4352 (0x1100) 0x81 AC3 eng (English) 6491,840 448 363548416 2028730
00000.M2TS 4353 (0x1101) 0x86 DTS-HD MA eng (English) 6491,840 3308 2684162068 15601161[/code]
<---- END FORUMS PASTE ---->

QUICK SUMMARY:

Disc Title: DEFQON_2010
Disc Size: 23504459064 bytes
Protection: AACS
BD-Java: No
Playlist: 00000.MPLS
Size: 17376282624 bytes
Length: 1:48:11
Total Bitrate: 21,41 Mbps
Video: MPEG-4 AVC Video / 16434 kbps / 1080i / 25 fps / 16:9 / High Profile 4.1
Audio: English / DTS-HD Master Audio / 5.1 / 48 kHz / 3308 kbps / 16-bit (DTS Core: 5.1 / 48 kHz / 1509 kbps / 16-bit)
Audio: English / Dolby Digital Audio / 5.1 / 48 kHz / 448 kbps

********************
PLAYLIST: 00001.MPLS
********************

<--- BEGIN FORUMS PASTE --->
[code]Total Video
Title Codec Length Movie Size Disc Size Bitrate Bitrate Main Audio Track Secondary Audio Track
----- ------ ------- -------------- -------------- ------- ------- ------------------ ---------------------
00001.MPLS AVC 0:33:48 4875706368 23504459064 19,23 17,88 DD AC3 5.1 448Kbps[/code]
[code]DISC INFO:

Disc Title: DEFQON_2010
Disc Size: 23504459064 bytes
Protection: AACS
BD-Java: No
BDInfo: 0.5.6

PLAYLIST REPORT:

Name: 00001.MPLS
Length: 0:33:48 (h:m:s)
Size: 4875706368 bytes
Total Bitrate: 19,23 Mbps

VIDEO:

Codec Bitrate Description
----- ------- -----------
MPEG-4 AVC Video 17882 kbps 1080i / 25 fps / 16:9 / High Profile 4.1

AUDIO:

Codec Language Bitrate Description
----- -------- ------- -----------
Dolby Digital Audio English 448 kbps 5.1 / 48 kHz / 448 kbps

FILES:

Name Time In Length Size Total Bitrate
---- ------- ------ ---- -------------
00001.M2TS 0:00:00.000 0:33:48.120 4875706368 19232

CHAPTERS:

Number Time In Length Avg Video Rate Max 1-Sec Rate Max 1-Sec Time Max 5-Sec Rate Max 5-Sec Time Max 10Sec Rate Max 10Sec Time Avg Frame Size Max Frame Size Max Frame Time
------ ------- ------ -------------- -------------- -------------- -------------- -------------- -------------- -------------- -------------- -------------- --------------
1 0:00:00.000 0:33:48.120 17882 kbps 32795 kbps 00:09:29.079 29160 kbps 00:29:37.920 26190 kbps 00:20:07.560 89408 bytes 285656 bytes 00:13:39.720

STREAM DIAGNOSTICS:

File PID Type Codec Language Seconds Bitrate Bytes Packets
---- --- ---- ----- -------- -------------- -------------- ------------- -----
00001.M2TS 4113 (0x1011) 0x1B AVC 2028,000 17883 4533268610 24692515
00001.M2TS 4352 (0x1100) 0x81 AC3 eng (English) 2028,000 448 113578752 633810[/code]
<---- END FORUMS PASTE ---->

QUICK SUMMARY:

Disc Title: DEFQON_2010
Disc Size: 23504459064 bytes
Protection: AACS
BD-Java: No
Playlist: 00001.MPLS
Size: 4875706368 bytes
Length: 0:33:48
Total Bitrate: 19,23 Mbps
Video: MPEG-4 AVC Video / 17882 kbps / 1080i / 25 fps / 16:9 / High Profile 4.1
Audio: English / Dolby Digital Audio / 5.1 / 48 kHz / 448 kbps

********************
PLAYLIST: 00002.MPLS
********************

<--- BEGIN FORUMS PASTE --->
[code]Total Video
Title Codec Length Movie Size Disc Size Bitrate Bitrate Main Audio Track Secondary Audio Track
----- ------ ------- -------------- -------------- ------- ------- ------------------ ---------------------
00002.MPLS AVC 0:05:29 663472128 23504459064 16,09 14,87 DD AC3 5.1 448Kbps[/code]
[code]DISC INFO:

Disc Title: DEFQON_2010
Disc Size: 23504459064 bytes
Protection: AACS
BD-Java: No
BDInfo: 0.5.6

PLAYLIST REPORT:

Name: 00002.MPLS
Length: 0:05:29 (h:m:s)
Size: 663472128 bytes
Total Bitrate: 16,09 Mbps

VIDEO:

Codec Bitrate Description
----- ------- -----------
MPEG-4 AVC Video 14870 kbps 1080i / 25 fps / 16:9 / High Profile 4.1

AUDIO:

Codec Language Bitrate Description
----- -------- ------- -----------
Dolby Digital Audio English 448 kbps 5.1 / 48 kHz / 448 kbps

FILES:

Name Time In Length Size Total Bitrate
---- ------- ------ ---- -------------
00002.M2TS 0:00:00.000 0:05:29.880 663472128 16090

CHAPTERS:

Number Time In Length Avg Video Rate Max 1-Sec Rate Max 1-Sec Time Max 5-Sec Rate Max 5-Sec Time Max 10Sec Rate Max 10Sec Time Avg Frame Size Max Frame Size Max Frame Time
------ ------- ------ -------------- -------------- -------------- -------------- -------------- -------------- -------------- -------------- -------------- --------------
1 0:00:00.000 0:05:29.880 14870 kbps 26973 kbps 00:04:26.880 22980 kbps 00:04:53.840 20856 kbps 00:04:32.600 74348 bytes 259253 bytes 00:01:11.080

STREAM DIAGNOSTICS:

File PID Type Codec Language Seconds Bitrate Bytes Packets
---- --- ---- ----- -------- -------------- -------------- ------------- -----
00002.M2TS 4113 (0x1011) 0x1B AVC 329,800 14873 613144851 3341388
00002.M2TS 4352 (0x1100) 0x81 AC3 eng (English) 329,800 448 18475520 103100[/code]
<---- END FORUMS PASTE ---->

QUICK SUMMARY:

Disc Title: DEFQON_2010
Disc Size: 23504459064 bytes
Protection: AACS
BD-Java: No
Playlist: 00002.MPLS
Size: 663472128 bytes
Length: 0:05:29
Total Bitrate: 16,09 Mbps
Video: MPEG-4 AVC Video / 14870 kbps / 1080i / 25 fps / 16:9 / High Profile 4.1
Audio: English / Dolby Digital Audio / 5.1 / 48 kHz / 448 kbps

********************
PLAYLIST: 00005.MPLS
********************

<--- BEGIN FORUMS PASTE --->
[code]Total Video
Title Codec Length Movie Size Disc Size Bitrate Bitrate Main Audio Track Secondary Audio Track
----- ------ ------- -------------- -------------- ------- ------- ------------------ ---------------------
00005.MPLS AVC 0:03:05 374151168 23504459064 16,18 11,61 DTS-HD Master 5.1 3110Kbps (48kHz/16-bit) DD AC3 5.1 448Kbps[/code]
[code]DISC INFO:

Disc Title: DEFQON_2010
Disc Size: 23504459064 bytes
Protection: AACS
BD-Java: No
BDInfo: 0.5.6

PLAYLIST REPORT:

Name: 00005.MPLS
Length: 0:03:05 (h:m:s)
Size: 374151168 bytes
Total Bitrate: 16,18 Mbps

VIDEO:

Codec Bitrate Description
----- ------- -----------
MPEG-4 AVC Video 11614 kbps 1080i / 25 fps / 16:9 / High Profile 4.1

AUDIO:

Codec Language Bitrate Description
----- -------- ------- -----------
DTS-HD Master Audio English 3110 kbps 5.1 / 48 kHz / 3110 kbps / 16-bit (DTS Core: 5.1 / 48 kHz / 1509 kbps / 16-bit)
Dolby Digital Audio English 448 kbps 5.1 / 48 kHz / 448 kbps

FILES:

Name Time In Length Size Total Bitrate
---- ------- ------ ---- -------------
00009.M2TS 0:00:00.000 0:03:05.039 374151168 16176

CHAPTERS:

Number Time In Length Avg Video Rate Max 1-Sec Rate Max 1-Sec Time Max 5-Sec Rate Max 5-Sec Time Max 10Sec Rate Max 10Sec Time Avg Frame Size Max Frame Size Max Frame Time
------ ------- ------ -------------- -------------- -------------- -------------- -------------- -------------- -------------- -------------- -------------- --------------
1 0:00:00.000 0:03:05.039 11614 kbps 26913 kbps 00:02:23.000 25764 kbps 00:02:23.000 24466 kbps 00:02:19.160 58068 bytes 279485 bytes 00:02:24.000

STREAM DIAGNOSTICS:

File PID Type Codec Language Seconds Bitrate Bytes Packets
---- --- ---- ----- -------- -------------- -------------- ------------- -----
00009.M2TS 4113 (0x1011) 0x1B AVC 184,880 11624 268622229 1464860
00009.M2TS 4352 (0x1100) 0x81 AC3 eng (English) 184,880 448 10363136 57830
00009.M2TS 4353 (0x1101) 0x86 DTS-HD MA eng (English) 184,880 3112 71923204 419784[/code]
<---- END FORUMS PASTE ---->

QUICK SUMMARY:

Disc Title: DEFQON_2010
Disc Size: 23504459064 bytes
Protection: AACS
BD-Java: No
Playlist: 00005.MPLS
Size: 374151168 bytes
Length: 0:03:05
Total Bitrate: 16,18 Mbps
Video: MPEG-4 AVC Video / 11614 kbps / 1080i / 25 fps / 16:9 / High Profile 4.1
Audio: English / DTS-HD Master Audio / 5.1 / 48 kHz / 3110 kbps / 16-bit (DTS Core: 5.1 / 48 kHz / 1509 kbps / 16-bit)
Audio: English / Dolby Digital Audio / 5.1 / 48 kHz / 448 kbps

********************
PLAYLIST: 00004.MPLS
********************

<--- BEGIN FORUMS PASTE --->
[code]Total Video
Title Codec Length Movie Size Disc Size Bitrate Bitrate Main Audio Track Secondary Audio Track
----- ------ ------- -------------- -------------- ------- ------- ------------------ ---------------------
00004.MPLS AVC 0:01:32 128821248 23504459064 11,09 10,07 DD AC3 5.1 448Kbps[/code]
[code]DISC INFO:

Disc Title: DEFQON_2010
Disc Size: 23504459064 bytes
Protection: AACS
BD-Java: No
BDInfo: 0.5.6

PLAYLIST REPORT:

Name: 00004.MPLS
Length: 0:01:32 (h:m:s)
Size: 128821248 bytes
Total Bitrate: 11,09 Mbps

VIDEO:

Codec Bitrate Description
----- ------- -----------
MPEG-4 AVC Video 10073 kbps 1080i / 25 fps / 16:9 / High Profile 4.1

AUDIO:

Codec Language Bitrate Description
----- -------- ------- -----------
Dolby Digital Audio English 448 kbps 5.1 / 48 kHz / 448 kbps

SUBTITLES:

Codec Language Bitrate Description
----- -------- ------- -----------
Interactive Graphics English 0,295 kbps

FILES:

Name Time In Length Size Total Bitrate
---- ------- ------ ---- -------------
00007.M2TS 0:00:00.000 0:01:32.960 128821248 11086

CHAPTERS:

Number Time In Length Avg Video Rate Max 1-Sec Rate Max 1-Sec Time Max 5-Sec Rate Max 5-Sec Time Max 10Sec Rate Max 10Sec Time Avg Frame Size Max Frame Size Max Frame Time
------ ------- ------ -------------- -------------- -------------- -------------- -------------- -------------- -------------- -------------- -------------- --------------
1 0:00:00.000 0:01:32.960 10073 kbps 24340 kbps 00:00:13.840 18129 kbps 00:00:11.440 15828 kbps 00:00:06.639 50363 bytes 249172 bytes 00:00:20.480

STREAM DIAGNOSTICS:

File PID Type Codec Language Seconds Bitrate Bytes Packets
---- --- ---- ----- -------- -------------- -------------- ------------- -----
00007.M2TS 4113 (0x1011) 0x1B AVC 92,800 10090 117043914 638701
00007.M2TS 4352 (0x1100) 0x81 AC3 eng (English) 92,800 449 5205760 29050
00007.M2TS 5120 (0x1400) 0x91 IGS eng (English) 92,800 0 3424 28[/code]
<---- END FORUMS PASTE ---->

QUICK SUMMARY:

Disc Title: DEFQON_2010
Disc Size: 23504459064 bytes
Protection: AACS
BD-Java: No
Playlist: 00004.MPLS
Size: 128821248 bytes
Length: 0:01:32
Total Bitrate: 11,09 Mbps
Video: MPEG-4 AVC Video / 10073 kbps / 1080i / 25 fps / 16:9 / High Profile 4.1
Audio: English / Dolby Digital Audio / 5.1 / 48 kHz / 448 kbps
Subtitle: English / 0,295 kbps
 

 ·  , , FAQ-
:  [ 14--2011 07:27 ]

  

.torrent

.torrent 112 KB


: 21.89 GB
(hash) : 41e4b2c2e463e86b61466195e53c53b1fc0b74c2
··
...

, Defqon.1 No Time to Waste

S L
(video) ·· Defqon.1 No Time to Waste [2010, Hardstyle, Hardcore, BDRip] AqvaGen 46425386284.32 GB 0 0 1294848513

19:08

12--11

(video) ·· Defqon.1 No Time to Waste [2010, Hardstyle, Hardcore, BDRip] Galfimbul 790601728754 MB 0 0 1294846706

18:38

12--11

bot

(video)

AqvaGen

Defqon.1 No Time to Waste

!