Скачать через торрент музыку Magnetic Man feat.Katy B - Perfect stranger бесплатно без регистрации torrent

Если у вас наблюдаются проблемы со скриншотами, переходом по ссылками, скачиванием торрентов - проблемы в блокировщике рекламы AdBlock. #хорошегоДня!


Статистика раздачи
Размер:  401 MB   |    Зарегистрирован:  6 лет 9 месяцев   |    .torrent скачан:  55 раз   |   
Раздают:  1  
   
Загрузка...
 
Автор Сообщение

AqvaGen


Magnetic Man feat.Katy B - Perfect stranger

Год выпуска: 2010
Жанр: Dubstep,Drum & Bass
Продолжительность: 00:05:04

Описание:Skream, Benga и Artwork вместе составляют замечательный коллектив под названием Magnetic Man, который пишет и играет вживую красивую электронную музыку, в основном дабстеп, но и не без днб. Недавно группа решила наконец поделиться с фанатами подробностями насчет выхода своего дебютного альбома под названием «Magnetic Man», который выйдет 4 октября сего года на легендарном лейбле Columbia. В часности они раскрыли полный треклист и рассказали, что в качестве приглашенных вокалистов этот альбом помогали сделать такие люди как Ms Dynamite, John Legend, Angela Hunte и Katy B.

Видео: MPEG-TS
Аудио:AC-3
Видео:1 920*1 080 \ 16:9 \ 25.000 fps \ 10.1 Mbps
Аудио: 384 Kbps \ 2 channels \ 48.0 KHz \ 16 bits
ID : 1
Complete name : F:\TORENTRAZDACHI\HD\Magnetic Man feat.Katy B - Perfect stranger.ts
Format : MPEG-TS
File size : 401 MiB
Duration : 5mn 4s
Overall bit rate : 11.1 Mbps

Video
ID : 2000 (0x7D0)
Menu ID : 1 (0x1)
Format : AVC
Format/Info : Advanced Video Codec
Format profile : Main@L4.0
Format settings, CABAC : Yes
Format settings, ReFrames : 4 frames
Format settings, GOP : M=1, N=14
Duration : 5mn 4s
Bit rate : 10.1 Mbps
Width : 1 920 pixels
Height : 1 080 pixels
Display aspect ratio : 16:9
Frame rate : 25.000 fps
Color space : YUV
Chroma subsampling : 4:2:0
Bit depth : 8 bits
Scan type : Interlaced
Scan order : Top Field First
Bits/(Pixel*Frame) : 0.195
Stream size : 367 MiB (92%)
Color primaries : BT.709-5, BT.1361, IEC 61966-2-4, SMPTE RP177
Transfer characteristics : BT.709-5, BT.1361
Matrix coefficients : BT.709-5, BT.1361, IEC 61966-2-4 709, SMPTE RP177

Audio
ID : 2002 (0x7D2)
Menu ID : 1 (0x1)
Format : AC-3
Format/Info : Audio Coding 3
Mode extension : CM (complete main)
Duration : 5mn 4s
Bit rate mode : Constant
Bit rate : 384 Kbps
Channel(s) : 2 channels
Channel positions : Front: L R
Sampling rate : 48.0 KHz
Bit depth : 16 bits
Stream size : 13.9 MiB (3%)
Language : English


Трекер:  [ 14-Янв-2011 07:30 ]

  

Скачать .torrent

Размер .torrent файла 32 KB


Размер: 401 MB
Хэш (hash) релиза: 2ffcc6ee30b8ec6126931b6187bf686e6963b389

bot

Топик был перенесен в форум Электронная музыка (video)

Перенес AqvaGen

Хотите добавить комментарий к записи скачать торрент Magnetic Man feat.Katy B - Perfect stranger

!Обратная связь