Скачать через торрент музыку Eric Prydz - Pjanoo бесплатно без регистрации torrent

Если у вас наблюдаются проблемы со скриншотами, переходом по ссылками, скачиванием торрентов - проблемы в блокировщике рекламы AdBlock. #хорошегоДня!


Статистика раздачи
Размер:  246 MB   |    Зарегистрирован:  6 лет 2 месяца   |    .torrent скачан:  39 раз   |   
Раздают:  1  
   
Загрузка...
 
Автор Сообщение

AqvaGen


Eric Prydz - Pjanoo

Год выпуска: 2008
Жанр: House
Продолжительность: 00:03:06

General
ID : 1
Complete name : F:\TORENTRAZDACHI\HD\Eric Prydz - Pjanoo.ts
Format : MPEG-TS
File size : 246 MiB
Duration : 3mn 6s
Overall bit rate : 11.0 Mbps

Video
ID : 2000 (0x7D0)
Menu ID : 1 (0x1)
Format : AVC
Format/Info : Advanced Video Codec
Format profile : Main@L4.0
Format settings, CABAC : Yes
Format settings, ReFrames : 4 frames
Format settings, GOP : M=1, N=32
Duration : 3mn 6s
Bit rate : 10.1 Mbps
Width : 1 920 pixels
Height : 1 080 pixels
Display aspect ratio : 16:9
Frame rate : 25.000 fps
Color space : YUV
Chroma subsampling : 4:2:0
Bit depth : 8 bits
Scan type : Interlaced
Scan order : Top Field First
Bits/(Pixel*Frame) : 0.195
Stream size : 225 MiB (91%)
Color primaries : BT.709-5, BT.1361, IEC 61966-2-4, SMPTE RP177
Transfer characteristics : BT.709-5, BT.1361
Matrix coefficients : BT.709-5, BT.1361, IEC 61966-2-4 709, SMPTE RP177

Audio
ID : 2002 (0x7D2)
Menu ID : 1 (0x1)
Format : AC-3
Format/Info : Audio Coding 3
Mode extension : CM (complete main)
Duration : 3mn 6s
Bit rate mode : Constant
Bit rate : 384 Kbps
Channel(s) : 2 channels
Channel positions : Front: L R
Sampling rate : 48.0 KHz
Bit depth : 16 bits
Stream size : 8.53 MiB (3%)
Language : English


Трекер:  [ 01-Авг-2011 05:47 ]

  

Скачать .torrent

Размер .torrent файла 39 KB


Размер: 246 MB
Хэш (hash) релиза: 539511cc7dc9c9a6eb6d6aa8e9dcc43cd33671cb

Торренты, похожие на Eric Prydz - Pjanoo скачать торрент

Форум Название Автор Размер S L Добавлен
Электронная музыка (video) ·· Eric Prydz - Pjanoo [2008 г., House, TVRip] Galfimbul 7554071672 MB 0 0 1294845775

18:22

12-Янв-11

Электронная музыка (lossless) ·· (House, Progerssive House, Breaks, Drum'n'Bass) Eric Prydz - Pjanoo (CATCHY109) - 2008, FLAC (tracks+.cue), lossless AqvaGen 364540162348 MB 0 0 1293047223

22:47

22-Дек-10

bot

Топик был перенесен в форум Электронная музыка (video)

Перенес AqvaGen

Хотите добавить комментарий к записи скачать торрент Eric Prydz - Pjanoo

!Обратная связь