Скачать через торрент музыку Труп невесты Corpse Bride бесплатно без регистрации torrent

Если у вас наблюдаются проблемы со скриншотами, переходом по ссылками, скачиванием торрентов - проблемы в блокировщике рекламы AdBlock. #хорошегоДня!


Статистика раздачи
Размер:  308 MB   |    Зарегистрирован:  3 года 11 месяцев   |    .torrent скачан:  31 раз   |   
Раздают:  1  
   
Загрузка...
 
Автор Сообщение

Polarnik

avatar Polarnik


Труп невесты / Corpse Bride
Жанр: Score / Soundtrack
Композитор: Danny Elfman
Год выпуска диска: 2005
Производитель диска: EU
Издатель (лейбл): Warner Sunset / Warner Bros.
Номер по каталогу: 9362-49473-2
Аудиокодек: FLAC (*.flac)
Тип рипа: tracks+.cue
Битрейт аудио: lossless
Продолжительность: 00:59:38
Источник: lztr.us / neuroin
Наличие сканов в содержимом раздачи: да
01. Main Titles (2:05)
02. According To Plan (3:45)
Performer - Albert Finney, Joanna Lumley, Paul Whitehouse, Tracey Ullman
03. Victor''s Piano Solo (1:18)
04. Into The Forest (4:35)
05. Remains Of The Day (3:26)
Performer - Alison Jiear, Danny Elfman, Gary Martin, Jane Horrocks, Paul Baker
06. Casting A Spell (1:25)
07. Moon Dance (1:28)
08. Victor''s Deception (4:00)
09. Tears To Shed (2:45)
Performer - Enn Reitel, Helena Bonham Carter, Jane Horrocks
10. Victoria''s Escape (2:31)
11. The Piano Duet (1:53)
12. New Arrival (0:42)
13. Victoria''s Wedding (3:15)
14. The Wedding Song (3:01)
Performer - Alison Jiear, Danny Elfman, Gary Martin, Jane Horrocks, Paul Baker
15. The Party Arrives (3:21)
16. Victor''s Wedding (2:08)
17. Barkis''s Bummer (2:07)
18. The Finale (2:35)
19. End Credits Part 1 (1:50)
20. End Credits Part 2 (2:33)

Bonus Tracks From Bonejangles And His Bone Boys
21. Ball & Socket Lounge Music #1 (Band Version) (2:15)
22. Remains Of The Day (Combo Lounge Version) (3:06)
23. Ball & Socket Lounge Music #2 (1:10)
24 Ball & Socket Lounge Music #1 (Combo Version) (2:14)
Exact Audio Copy V0.99 prebeta 4 from 23. January 2008

EAC extraction logfile from 8. January 2009, 5:11

Danny Elfman / Corpse Bride

Used drive : ASUS DRW-1814BL Adapter: 0 ID: 0

Read mode : SecureUtilize accurate stream : YesDefeat audio cache : YesMake use of C2 pointers : No

Read offset correction : 6Overread into Lead-In and Lead-Out : NoFill up missing offset samples with silence : YesDelete leading and trailing silent blocks : NoNull samples used in CRC calculations : YesUsed interface : Native Win32 interface for Win NT & 2000Gap handling : Appended to previous track

Used output format : Internal WAV RoutinesSample format : 44.100 Hz; 16 Bit; Stereo

TOC of the extracted CD

Track | Start | Length | Start sector | End sector --------------------------------------------------------- 1 | 0:00.00 | 2:05.72 | 0 | 9446 2 | 2:05.72 | 3:45.37 | 9447 | 26358 3 | 5:51.34 | 1:18.00 | 26359 | 32208 4 | 7:09.34 | 4:35.49 | 32209 | 52882 5 | 11:45.08 | 3:26.70 | 52883 | 68402 6 | 15:12.03 | 1:25.41 | 68403 | 74818 7 | 16:37.44 | 1:28.16 | 74819 | 81434 8 | 18:05.60 | 4:00.03 | 81435 | 99437 9 | 22:05.63 | 2:45.48 | 99438 | 111860 10 | 24:51.36 | 2:31.01 | 111861 | 123186 11 | 27:22.37 | 1:53.23 | 123187 | 131684 12 | 29:15.60 | 0:42.00 | 131685 | 134834 13 | 29:57.60 | 3:15.14 | 134835 | 149473 14 | 33:12.74 | 3:01.00 | 149474 | 163048 15 | 36:13.74 | 3:21.24 | 163049 | 178147 16 | 39:35.23 | 2:08.74 | 178148 | 187821 17 | 41:44.22 | 2:07.31 | 187822 | 197377 18 | 43:51.53 | 2:35.52 | 197378 | 209054 19 | 46:27.30 | 1:50.19 | 209055 | 217323 20 | 48:17.49 | 2:33.31 | 217324 | 228829 21 | 50:51.05 | 2:15.46 | 228830 | 239000 22 | 53:06.51 | 3:06.46 | 239001 | 252996 23 | 56:13.22 | 1:10.60 | 252997 | 258306 24 | 57:24.07 | 2:14.34 | 258307 | 268390

Track 1

Filename F:\FLAC\Danny Elfman - Corpse Bride - V0\Danny Elfman - Corpse Bride - 01 - Main Titles.wav

Pre-gap length 0:00:02.00

Peak level 78.5 % Track quality 100.0 % Test CRC 12E87A64 Copy CRC 12E87A64 Accurately ripped (confidence 8) [74FE85BE] Copy OK

Track 2

Filename F:\FLAC\Danny Elfman - Corpse Bride - V0\Danny Elfman - Corpse Bride - 02 - According To Plan.wav

Peak level 91.2 % Track quality 100.0 % Test CRC 7DC089E5 Copy CRC 7DC089E5 Accurately ripped (confidence 8) [AB966F12] Copy OK

Track 3

Filename F:\FLAC\Danny Elfman - Corpse Bride - V0\Danny Elfman - Corpse Bride - 03 - Victor''s Piano Solo.wav

Peak level 88.5 % Track quality 99.8 % Test CRC C67A2CE5 Copy CRC C67A2CE5 Accurately ripped (confidence 8) [CBF31473] Copy OK

Track 4

Filename F:\FLAC\Danny Elfman - Corpse Bride - V0\Danny Elfman - Corpse Bride - 04 - Into The Forest.wav

Peak level 91.2 % Track quality 100.0 % Test CRC 0F108FA1 Copy CRC 0F108FA1 Accurately ripped (confidence 8) [1CD5AE06] Copy OK

Track 5

Filename F:\FLAC\Danny Elfman - Corpse Bride - V0\Danny Elfman - Corpse Bride - 05 - Remains Of The Day.wav

Peak level 91.2 % Track quality 100.0 % Test CRC 774A14A5 Copy CRC 774A14A5 Accurately ripped (confidence 8) [6024F697] Copy OK

Track 6

Filename F:\FLAC\Danny Elfman - Corpse Bride - V0\Danny Elfman - Corpse Bride - 06 - Casting A Spell.wav

Peak level 91.1 % Track quality 100.0 % Test CRC 03208070 Copy CRC 03208070 Accurately ripped (confidence 8) [8AE41802] Copy OK

Track 7

Filename F:\FLAC\Danny Elfman - Corpse Bride - V0\Danny Elfman - Corpse Bride - 07 - Moon Dance.wav

Peak level 75.5 % Track quality 100.0 % Test CRC F76D0E14 Copy CRC F76D0E14 Accurately ripped (confidence 8) [688235B9] Copy OK

Track 8

Filename F:\FLAC\Danny Elfman - Corpse Bride - V0\Danny Elfman - Corpse Bride - 08 - Victor''s Deception.wav

Peak level 91.1 % Track quality 100.0 % Test CRC 549B4F84 Copy CRC 549B4F84 Accurately ripped (confidence 8) [3E3CF71A] Copy OK

Track 9

Filename F:\FLAC\Danny Elfman - Corpse Bride - V0\Danny Elfman - Corpse Bride - 09 - Tears To Shed.wav

Peak level 91.1 % Track quality 100.0 % Test CRC A0940A24 Copy CRC A0940A24 Accurately ripped (confidence 8) [28E4612D] Copy OK

Track 10

Filename F:\FLAC\Danny Elfman - Corpse Bride - V0\Danny Elfman - Corpse Bride - 10 - Victoria''s Escape.wav

Peak level 91.2 % Track quality 100.0 % Test CRC 4BF155A8 Copy CRC 4BF155A8 Accurately ripped (confidence 8) [D27B4C11] Copy OK

Track 11

Filename F:\FLAC\Danny Elfman - Corpse Bride - V0\Danny Elfman - Corpse Bride - 11 - The Piano Duet.wav

Peak level 74.3 % Track quality 100.0 % Test CRC 0518BA71 Copy CRC 0518BA71 Accurately ripped (confidence 8) [B9C67EFC] Copy OK

Track 12

Filename F:\FLAC\Danny Elfman - Corpse Bride - V0\Danny Elfman - Corpse Bride - 12 - New Arrival.wav

Peak level 91.1 % Track quality 100.0 % Test CRC 9B991540 Copy CRC 9B991540 Accurately ripped (confidence 9) [34BA9908] Copy OK

Track 13

Filename F:\FLAC\Danny Elfman - Corpse Bride - V0\Danny Elfman - Corpse Bride - 13 - Victoria''s Wedding.wav

Peak level 91.1 % Track quality 100.0 % Test CRC 3EF00CD7 Copy CRC 3EF00CD7 Accurately ripped (confidence 7) [6D69D04E] Copy OK

Track 14

Filename F:\FLAC\Danny Elfman - Corpse Bride - V0\Danny Elfman - Corpse Bride - 14 - The Wedding Song.wav

Peak level 91.2 % Track quality 99.9 % Test CRC 66BBAA33 Copy CRC 66BBAA33 Accurately ripped (confidence 8) [3395A149] Copy OK

Track 15

Filename F:\FLAC\Danny Elfman - Corpse Bride - V0\Danny Elfman - Corpse Bride - 15 - The Party Arrives.wav

Peak level 91.1 % Track quality 100.0 % Test CRC F9EF82E5 Copy CRC F9EF82E5 Accurately ripped (confidence 8) [E5FA6799] Copy OK

Track 16

Filename F:\FLAC\Danny Elfman - Corpse Bride - V0\Danny Elfman - Corpse Bride - 16 - Victor''s Wedding.wav

Peak level 72.5 % Track quality 100.0 % Test CRC EAAB0F12 Copy CRC EAAB0F12 Accurately ripped (confidence 8) [63AC7DB4] Copy OK

Track 17

Filename F:\FLAC\Danny Elfman - Corpse Bride - V0\Danny Elfman - Corpse Bride - 17 - Barkis''s Bummer.wav

Peak level 91.2 % Track quality 100.0 % Test CRC 3EC90EC1 Copy CRC 3EC90EC1 Accurately ripped (confidence 8) [555452AB] Copy OK

Track 18

Filename F:\FLAC\Danny Elfman - Corpse Bride - V0\Danny Elfman - Corpse Bride - 18 - The Finale.wav

Peak level 91.1 % Track quality 100.0 % Test CRC 47A7014C Copy CRC 47A7014C Accurately ripped (confidence 8) [A6BE211E] Copy OK

Track 19

Filename F:\FLAC\Danny Elfman - Corpse Bride - V0\Danny Elfman - Corpse Bride - 19 - End Credits Part 1.wav

Peak level 79.1 % Track quality 99.9 % Test CRC 56E8DF72 Copy CRC 56E8DF72 Accurately ripped (confidence 8) [9071CD27] Copy OK

Track 20

Filename F:\FLAC\Danny Elfman - Corpse Bride - V0\Danny Elfman - Corpse Bride - 20 - End Credits Part 2.wav

Peak level 91.2 % Track quality 99.9 % Test CRC FB9DF539 Copy CRC FB9DF539 Accurately ripped (confidence 8) [90E78011] Copy OK

Track 21

Filename F:\FLAC\Danny Elfman - Corpse Bride - V0\Danny Elfman - Corpse Bride - 21 - Ball & Socket Lounge Music #1 (Band Version).wav

Peak level 91.1 % Track quality 100.0 % Test CRC 0733479A Copy CRC 0733479A Accurately ripped (confidence 8) [C40E8CDE] Copy OK

Track 22

Filename F:\FLAC\Danny Elfman - Corpse Bride - V0\Danny Elfman - Corpse Bride - 22 - Remains Of The Day (Combo Lounge Version).wav

Peak level 70.4 % Track quality 99.9 % Test CRC 14A592D7 Copy CRC 14A592D7 Accurately ripped (confidence 8) [0776C27B] Copy OK

Track 23

Filename F:\FLAC\Danny Elfman - Corpse Bride - V0\Danny Elfman - Corpse Bride - 23 - Ball & Socket Lounge Music #2.wav

Peak level 70.7 % Track quality 100.0 % Test CRC 9C5ECEB6 Copy CRC 9C5ECEB6 Accurately ripped (confidence 8) [BA7F7EB0] Copy OK

Track 24

Filename F:\FLAC\Danny Elfman - Corpse Bride - V0\Danny Elfman - Corpse Bride - 24 - Ball & Socket Lounge Music #1 (Combo Version).wav

Peak level 91.2 % Track quality 100.0 % Test CRC 8F49B27B Copy CRC 8F49B27B Accurately ripped (confidence 8) [A65C3F96] Copy OK

All tracks accurately ripped

No errors occurred

End of status report
REM GENRE SoundtrackREM DATE 2005REM DISCID 8E0DFA18REM COMMENT "ExactAudioCopy v0.99pb4"PERFORMER "Danny Elfman"TITLE "Corpse Bride"FILE "Danny Elfman - Corpse Bride - 01 - Main Titles.wav" WAVE TRACK 01 AUDIO TITLE "Main Titles" PERFORMER "Danny Elfman" INDEX 01 00:00:00FILE "Danny Elfman - Corpse Bride - 02 - According To Plan.wav" WAVE TRACK 02 AUDIO TITLE "According To Plan" PERFORMER "Danny Elfman" INDEX 01 00:00:00FILE "Danny Elfman - Corpse Bride - 03 - Victor''s Piano Solo.wav" WAVE TRACK 03 AUDIO TITLE "Victor''s Piano Solo" PERFORMER "Danny Elfman" INDEX 01 00:00:00FILE "Danny Elfman - Corpse Bride - 04 - Into The Forest.wav" WAVE TRACK 04 AUDIO TITLE "Into The Forest" PERFORMER "Danny Elfman" INDEX 01 00:00:00FILE "Danny Elfman - Corpse Bride - 05 - Remains Of The Day.wav" WAVE TRACK 05 AUDIO TITLE "Remains Of The Day" PERFORMER "Danny Elfman" INDEX 01 00:00:00FILE "Danny Elfman - Corpse Bride - 06 - Casting A Spell.wav" WAVE TRACK 06 AUDIO TITLE "Casting A Spell" PERFORMER "Danny Elfman" INDEX 01 00:00:00FILE "Danny Elfman - Corpse Bride - 07 - Moon Dance.wav" WAVE TRACK 07 AUDIO TITLE "Moon Dance" PERFORMER "Danny Elfman" INDEX 01 00:00:00FILE "Danny Elfman - Corpse Bride - 08 - Victor''s Deception.wav" WAVE TRACK 08 AUDIO TITLE "Victor''s Deception" PERFORMER "Danny Elfman" INDEX 01 00:00:00FILE "Danny Elfman - Corpse Bride - 09 - Tears To Shed.wav" WAVE TRACK 09 AUDIO TITLE "Tears To Shed" PERFORMER "Danny Elfman" INDEX 01 00:00:00FILE "Danny Elfman - Corpse Bride - 10 - Victoria''s Escape.wav" WAVE TRACK 10 AUDIO TITLE "Victoria''s Escape" PERFORMER "Danny Elfman" INDEX 01 00:00:00FILE "Danny Elfman - Corpse Bride - 11 - The Piano Duet.wav" WAVE TRACK 11 AUDIO TITLE "The Piano Duet" PERFORMER "Danny Elfman" INDEX 01 00:00:00FILE "Danny Elfman - Corpse Bride - 12 - New Arrival.wav" WAVE TRACK 12 AUDIO TITLE "New Arrival" PERFORMER "Danny Elfman" INDEX 01 00:00:00FILE "Danny Elfman - Corpse Bride - 13 - Victoria''s Wedding.wav" WAVE TRACK 13 AUDIO TITLE "Victoria''s Wedding" PERFORMER "Danny Elfman" INDEX 01 00:00:00FILE "Danny Elfman - Corpse Bride - 14 - The Wedding Song.wav" WAVE TRACK 14 AUDIO TITLE "The Wedding Song" PERFORMER "Danny Elfman" INDEX 01 00:00:00FILE "Danny Elfman - Corpse Bride - 15 - The Party Arrives.wav" WAVE TRACK 15 AUDIO TITLE "The Party Arrives" PERFORMER "Danny Elfman" INDEX 01 00:00:00FILE "Danny Elfman - Corpse Bride - 16 - Victor''s Wedding.wav" WAVE TRACK 16 AUDIO TITLE "Victor''s Wedding" PERFORMER "Danny Elfman" INDEX 01 00:00:00FILE "Danny Elfman - Corpse Bride - 17 - Barkis''s Bummer.wav" WAVE TRACK 17 AUDIO TITLE "Barkis''s Bummer" PERFORMER "Danny Elfman" INDEX 01 00:00:00FILE "Danny Elfman - Corpse Bride - 18 - The Finale.wav" WAVE TRACK 18 AUDIO TITLE "The Finale" PERFORMER "Danny Elfman" INDEX 01 00:00:00FILE "Danny Elfman - Corpse Bride - 19 - End Credits Part 1.wav" WAVE TRACK 19 AUDIO TITLE "End Credits Part 1" PERFORMER "Danny Elfman" INDEX 01 00:00:00FILE "Danny Elfman - Corpse Bride - 20 - End Credits Part 2.wav" WAVE TRACK 20 AUDIO TITLE "End Credits Part 2" PERFORMER "Danny Elfman" INDEX 01 00:00:00FILE "Danny Elfman - Corpse Bride - 21 - Ball & Socket Lounge Music #1 (Band Version).wav" WAVE TRACK 21 AUDIO TITLE "Ball & Socket Lounge Music #1 (Band Version)" PERFORMER "Danny Elfman" INDEX 01 00:00:00FILE "Danny Elfman - Corpse Bride - 22 - Remains Of The Day (Combo Lounge Version).wav" WAVE TRACK 22 AUDIO TITLE "Remains Of The Day (Combo Lounge Version)" PERFORMER "Danny Elfman" INDEX 01 00:00:00FILE "Danny Elfman - Corpse Bride - 23 - Ball & Socket Lounge Music #2.wav" WAVE TRACK 23 AUDIO TITLE "Ball & Socket Lounge Music #2" PERFORMER "Danny Elfman" INDEX 01 00:00:00FILE "Danny Elfman - Corpse Bride - 24 - Ball & Socket Lounge Music #1 (Combo Version).wav" WAVE TRACK 24 AUDIO TITLE "Ball & Socket Lounge Music #1 (Combo Version)" PERFORMER "Danny Elfman" INDEX 01 00:00:00


Трекер:  [ 25-Сен-2013 08:27 ]

  

Скачать .torrent

Размер .torrent файла 15 KB


Размер: 308 MB
Хэш (hash) релиза: 10d45acf756b3d1dd30d42573630c39c6c38ba21

Торренты, похожие на Труп невесты Corpse Bride скачать торрент

Форум Название Автор Размер S L Добавлен
Саундтреки к фильмам и мультфильмам (mp3) ·· (Score) Труп Невесты / Corpse Bride (Complete) (2CD) (by Danny Elfman) - 2005, MP3 , 320 kbps Galfimbul 253968847242 MB 0 0 1292265315

21:35

13-Дек-10

Саундтреки к фильмам и мультфильмам (mp3) ·· (Soundtrack) Corpse Bride / Труп невесты - 2005 [MP3, 320 кбит/с] Galfimbul 143312970137 MB 0 0 1292266362

21:52

13-Дек-10

Еще никто не оставлял запись к записи скачать торрент Труп невесты Corpse Bride . Будь первым!

!Обратная связь