Скачать через торрент музыку Recoil - Want бесплатно без регистрации torrent

Если у вас наблюдаются проблемы со скриншотами, переходом по ссылками, скачиванием торрентов - проблемы в блокировщике рекламы AdBlock. #хорошегоДня!


Статистика раздачи
Размер:  606 MB   |    Зарегистрирован:  6 лет 9 месяцев   |    .torrent скачан:  39 раз   |   
Раздают:  1  
   
Загрузка...
 
Автор Сообщение

AqvaGen


Recoil - Want [Renegade of Noise 808 remix]

Жанр: Ambient/Experimental
Продолжительность: 00.06.23
Год выпуска: 2010
Описание: Клип на новый сингл Алана Вайлдера

Качество: HDTV
Контейнер: MOV
Видео кодек: H.264
Аудио кодек: PCM
Видео: AVC, 1920x1080p, 11.1 Mbps,25 fps
Аудио: PCM, 2 117 Kbps, 44.1 KHz, 2 Ch
Video
ID : 1
Format : AVC
Format/Info : Advanced Video Codec
Format profile : Main@L4.0
Format settings, CABAC : No
Format settings, ReFrames : 2 frames
Codec ID : avc1
Codec ID/Info : Advanced Video Coding
Duration : 6mn 23s
Duration_LastFrame : -840ms
Bit rate mode : Variable
Bit rate : 11.1 Mbps
Width : 1 920 pixels
Height : 1 080 pixels
Display aspect ratio : 16:9
Frame rate mode : Constant
Frame rate : 25.000 fps
Resolution : 8 bits
Colorimetry : 4:2:0
Scan type : Progressive
Bits/(Pixel*Frame) : 0.215
Stream size : 509 MiB (84%)
Language : English
Encoded date : UTC 2010-09-28 19:40:29
Tagged date : UTC 2010-09-28 19:41:31
Color primaries : BT.709-5, BT.1361, IEC 61966-2-4, SMPTE RP177
Transfer characteristics : BT.709-5, BT.1361
Matrix coefficients : BT.709-5, BT.1361, IEC 61966-2-4 709, SMPTE RP177

Audio
ID : 3
Format : PCM
Format settings, Endianness : Big
Format settings, Sign : Unsigned
Codec ID : in24
Duration : 6mn 23s
Bit rate mode : Constant
Bit rate : 2 117 Kbps
Channel(s) : 2 channels
Sampling rate : 44.1 KHz
Resolution : 24 bits
Stream size : 96.7 MiB (16%)
Language : English
Encoded date : UTC 2010-09-28 19:40:29
Tagged date : UTC 2010-09-28 19:41:31


Трекер:  [ 14-Янв-2011 07:35 ]

  

Скачать .torrent

Размер .torrent файла 12 KB


Размер: 606 MB
Хэш (hash) релиза: 81d060cf7a88de77e885b765dd3018507b367396

bot

Топик был перенесен в форум Электронная музыка (video)

Перенес AqvaGen

Хотите добавить комментарий к записи скачать торрент Recoil - Want

!Обратная связь