Скачать через торрент музыку Defqon.1 No Time to Waste бесплатно без регистрации torrent

Если у вас наблюдаются проблемы со скриншотами, переходом по ссылками, скачиванием торрентов - проблемы в блокировщике рекламы AdBlock. #хорошегоДня!


Статистика раздачи
Размер:  4.32 GB   |    Зарегистрирован:  6 лет 6 месяцев   |    .torrent скачан:  46 раз   |   
Раздают:  1  
   
Загрузка...
 
Автор Сообщение

AqvaGen


Defqon.1 No Time to Waste (2010)

Жанр: Hardstyle, Hardcore
Продолжительность: 01:48:11
Год выпуска: 2010

Описание: Фестиваль электронной танцевальной музыки. Состоялся 12 июня 2010.

Сэмпл №1 http://onemove.ru/23858/
Сэмпл №2 http://onemove.ru/23860/
Сэмпл №3 http://onemove.ru/23861/

Качество: BDRip
Контейнер: MKV
Видео кодек: H.264
Аудио кодек: DTS
Видео: 1280x720p AVC High@L4.1 4211 Kbps 25.000 fps
Аудио: English DTS 5.1 48 kHz 1,510 kbps 16-bit 6Ch
01. Pendulum - Fasten Your Seatbelt (Intro)
02. The Prophet & Duro - Shizzle My Dizzle
03. Toneshifterz meets Nitrouz - BidniZ
04. Headhunterz & Wildstylez meets Noisecontrollers - Tonight
05. Noisecontrollers - Faster N Futher
06. Headhunterz - Subsonic (Hardbass Edit)
07. Noisecontrollers - Promises
08. Noisecontrollers - Summer In The City Part 2
09. Noisecontrollers & Toneshifterz - Jaydee
10. Noisecontrollers - Marlboro Man
11. Toneshifterz - Elektro Shock
12. Noisecontrollers - Darkside Of Emotions
13. Noisecontrollers - Attack Again
14. Noisecontrollers - Club Jumper
15. Killer Clown - Silentium
16. Noisecontrollers - Shreek (Headhunterz Remix)
17. Noisecontrollers - Paranoid
18. Pavelow - No Time To Waste (Edit)
19. Donkey Rollers - D.O.N.K.E.Y
20. Headhunterz - Forever Az One (Noisecontrollers Remix)
21. Noisecontrollers - Summer In The City Part 1
22. Showtek - We Live For The Music (Noisecontrollers Remix)
General
Complete name
Format : Matroska
File size : 4.32 GiB
Duration : 1h 48mn
Overall bit rate : 5 721 Kbps
Movie name : Defqon 1 Live Registration 2010 Blu-ray 720p AVC DTS 5 1 ELR
Encoded date : UTC 2010-10-03 04:10:55
Writing application : mkvmerge v4.1.1 ('Bouncin' Back') built on Jul 3 2010 22:54:08
Writing library : libebml v1.0.0 + libmatroska v1.0.0

Video
ID : 1
Format : AVC
Format/Info : Advanced Video Codec
Format profile : High@L4.1
Format settings, CABAC : Yes
Format settings, ReFrames : 3 frames
Muxing mode : Container profile=Unknown@4.1
Codec ID : V_MPEG4/ISO/AVC
Duration : 1h 48mn
Bit rate : 4 211 Kbps
Width : 1 280 pixels
Height : 720 pixels
Display aspect ratio : 16:9
Frame rate : 25.000 fps
Color space : YUV
Chroma subsampling : 4:2:0
Bit depth : 8 bits
Scan type : Progressive
Bits/(Pixel*Frame) : 0.183
Stream size : 3.10 GiB (72%)
Writing library : x264 core 104 r1683 62997d6
Encoding settings : cabac=1 / ref=3 / deblock=1:0:0 / analyse=0x3:0x133 / me=umh / subme=7 / psy=1 / psy_rd=1.00:0.00 / mixed_ref=1 / me_range=16 / chroma_me=1 / trellis=1 / 8x8dct=1 / cqm=0 / deadzone=21,11 / fast_pskip=1 / chroma_qp_offset=-2 / threads=6 / sliced_threads=0 / nr=0 / decimate=1 / interlaced=0 / constrained_intra=0 / bframes=3 / b_pyramid=0 / b_adapt=1 / b_bias=0 / direct=1 / weightb=1 / open_gop=0 / weightp=2 / keyint=250 / keyint_min=25 / scenecut=40 / intra_refresh=0 / rc_lookahead=40 / rc=2pass / mbtree=1 / bitrate=4211 / ratetol=1.0 / qcomp=0.60 / qpmin=10 / qpmax=51 / qpstep=4 / cplxblur=20.0 / qblur=0.5 / vbv_maxrate=25000 / vbv_bufsize=25000 / ip_ratio=1.40 / aq=1:1.00 / nal_hrd=vbr

Audio
ID : 2
Format : DTS
Format/Info : Digital Theater Systems
Codec ID : A_DTS
Duration : 1h 48mn
Bit rate mode : Constant
Bit rate : 1 510 Kbps
Channel(s) : 6 channels
Channel positions : Front: L C R, Side: L R, LFE
Sampling rate : 48.0 KHz
Bit depth : 16 bits
Stream size : 1.14 GiB (26%)

Menu
00:00:00.000 : en:00:00:00.000
00:03:12.520 : en:00:03:12.520
00:07:36.560 : en:00:07:36.560
00:11:16.200 : en:00:11:16.200
00:14:33.680 : en:00:14:33.680
00:16:16.720 : en:00:16:16.720
00:18:31.120 : en:00:18:31.120
00:21:21.080 : en:00:21:21.080
00:25:44.280 : en:00:25:44.280
00:27:39.280 : en:00:27:39.280
00:31:08.320 : en:00:31:08.320
00:33:29.000 : en:00:33:29.000
00:37:56.120 : en:00:37:56.120
00:40:05.960 : en:00:40:05.960
00:43:01.480 : en:00:43:01.480
00:54:47.040 : en:00:54:47.040
00:59:08.600 : en:00:59:08.600
01:01:19.600 : en:01:01:19.600
01:06:09.960 : en:01:06:09.960
01:07:13.440 : en:01:07:13.440
01:09:23.080 : en:01:09:23.080
01:11:33.480 : en:01:11:33.480
01:20:25.560 : en:01:20:25.560
01:27:15.560 : en:01:27:15.560


Трекер:  [ 08-Апр-2011 05:45 ]

  

Скачать .torrent

Размер .torrent файла 22 KB


Размер: 4.32 GB
Хэш (hash) релиза: 39fbb1dfbe825a14360d692e017b74abed088d95

Торренты, похожие на Defqon.1 No Time to Waste скачать торрент

Форум Название Автор Размер S L Добавлен
Электронная музыка (video) ·· Defqon.1 No Time to Waste [2010, HardStyle/HardCore, Blu-ray] AqvaGen 2350445906421.89 GB 0 0 1294848529

19:08

12-Янв-11

Электронная музыка (video) ·· Defqon.1 No Time to Waste [2010, Hardstyle, Hardcore, BDRip] Galfimbul 790601728754 MB 0 0 1294846706

18:38

12-Янв-11

bot

Топик был перенесен в форум Электронная музыка (video)

Перенес AqvaGen

Хотите добавить комментарий к записи скачать торрент Defqon.1 No Time to Waste

!Обратная связь