Скачать через торрент музыку Alex Gaudino - Im in love бесплатно без регистрации torrent

Если у вас наблюдаются проблемы со скриншотами, переходом по ссылками, скачиванием торрентов - проблемы в блокировщике рекламы AdBlock. #хорошегоДня!


Статистика раздачи
Размер:  222 MB   |    Зарегистрирован:  6 лет 2 месяца   |    .torrent скачан:  51 раз   |   
Раздают:  1  
   
Загрузка...
 
Автор Сообщение

AqvaGen


Alex Gaudino - I'm in love (I wanna do it)

Год выпуска: 2010
Жанр: Electro, House
Продолжительность: 00:02:47

Описание:Итальянский диджей и продюсер Алекс Гаудино (настоящее имя - Alessandro Fortunato Gaudino) выпустил в начале 2007 года трек «Destination Calabria», популярный сегодня не меньше признанных хитов «The World Is Mine» Дэвида Гуэтта и «Love Genetation» Боба Синклера.

ID : 1
Complete name : F:\TORENTRAZDACHI\HD\Alex Gaudino - I'm in love (I wanna do it).ts
Format : MPEG-TS
File size : 222 MiB
Duration : 2mn 48s
Overall bit rate : 11.1 Mbps

Video
ID : 2000 (0x7D0)
Menu ID : 1 (0x1)
Format : AVC
Format/Info : Advanced Video Codec
Format profile : Main@L4.0
Format settings, CABAC : Yes
Format settings, ReFrames : 4 frames
Duration : 2mn 47s
Bit rate : 10.1 Mbps
Width : 1 920 pixels
Height : 1 080 pixels
Display aspect ratio : 16:9
Frame rate : 25.000 fps
Color space : YUV
Chroma subsampling : 4:2:0
Bit depth : 8 bits
Scan type : Interlaced
Scan order : Top Field First
Bits/(Pixel*Frame) : 0.195
Stream size : 203 MiB (91%)
Color primaries : BT.709-5, BT.1361, IEC 61966-2-4, SMPTE RP177
Transfer characteristics : BT.709-5, BT.1361
Matrix coefficients : BT.709-5, BT.1361, IEC 61966-2-4 709, SMPTE RP177

Audio
ID : 2002 (0x7D2)
Menu ID : 1 (0x1)
Format : AC-3
Format/Info : Audio Coding 3
Mode extension : CM (complete main)
Duration : 2mn 47s
Bit rate mode : Constant
Bit rate : 384 Kbps
Channel(s) : 2 channels
Channel positions : Front: L R
Sampling rate : 48.0 KHz
Bit depth : 16 bits
Stream size : 7.69 MiB (3%)
Language : English


Трекер:  [ 01-Авг-2011 05:54 ]

  

Скачать .torrent

Размер .torrent файла 35 KB


Размер: 222 MB
Хэш (hash) релиза: 98ae8a208cbeeb9958afa55d8e269ec791afd158

Торренты, похожие на Alex Gaudino - Im in love скачать торрент

Форум Название Автор Размер S L Добавлен
Электронная музыка (video) ·· Alex Gaudino - I'm in love (I wanna do it) [2010, House, DVDRip] Rosomaxa 5388554451 MB 0 0 1294846930

18:42

12-Янв-11

Электронная музыка (video) ·· Alex Gaudino - I'm in love [2010 г.,Dance, House, Club, SATRip] Galfimbul 9295872489 MB 0 0 1294845705

18:21

12-Янв-11

bot

Топик был перенесен в форум Электронная музыка (video)

Перенес AqvaGen

Хотите добавить комментарий к записи скачать торрент Alex Gaudino - Im in love

!Обратная связь