Скачать через торрент музыку Inna - Amazing бесплатно без регистрации torrent

Если у вас наблюдаются проблемы со скриншотами, переходом по ссылками, скачиванием торрентов - проблемы в блокировщике рекламы AdBlock. #хорошегоДня!


Статистика раздачи
Размер:  182 MB   |    Зарегистрирован:  6 лет 2 месяца   |    .torrent скачан:  44 раза   |   
Раздают:  1  
   
Загрузка...
 
Автор Сообщение

L


Inna - Amazing

Год выпуска: 2010
Жанр: House
Продолжительность: 00:02:18

ID : 1
Complete name : F:\TORENTRAZDACHI\HD\Inna - Amazing.ts
Format : MPEG-TS
File size : 182 MiB
Duration : 2mn 18s
Overall bit rate : 11.0 Mbps

Video
ID : 2000 (0x7D0)
Menu ID : 1 (0x1)
Format : AVC
Format/Info : Advanced Video Codec
Format profile : Main@L4.0
Format settings, CABAC : Yes
Format settings, ReFrames : 4 frames
Duration : 2mn 18s
Bit rate : 10.1 Mbps
Width : 1 920 pixels
Height : 1 080 pixels
Display aspect ratio : 16:9
Frame rate : 25.000 fps
Color space : YUV
Chroma subsampling : 4:2:0
Bit depth : 8 bits
Scan type : Interlaced
Scan order : Top Field First
Bits/(Pixel*Frame) : 0.195
Stream size : 167 MiB (91%)
Color primaries : BT.709-5, BT.1361, IEC 61966-2-4, SMPTE RP177
Transfer characteristics : BT.709-5, BT.1361
Matrix coefficients : BT.709-5, BT.1361, IEC 61966-2-4 709, SMPTE RP177

Audio
ID : 2002 (0x7D2)
Menu ID : 1 (0x1)
Format : AC-3
Format/Info : Audio Coding 3
Mode extension : CM (complete main)
Duration : 2mn 18s
Bit rate mode : Constant
Bit rate : 384 Kbps
Channel(s) : 2 channels
Channel positions : Front: L R
Sampling rate : 48.0 KHz
Bit depth : 16 bits
Stream size : 6.34 MiB (3%)
Language : English


Трекер:  [ 29-Июл-2011 09:50 ]

  

Скачать .torrent

Размер .torrent файла 29 KB


Размер: 182 MB
Хэш (hash) релиза: 2c8088468a35455a12b233ce2416e732b0accd0c

Торренты, похожие на Inna - Amazing скачать торрент

Форум Название Автор Размер S L Добавлен
Электронная музыка (video) ·· Inna - Amazing (Live Starfloor 2010 HDTV) [2010, Pop, HDTV] AqvaGen 142714560136 MB 0 0 1294848504

19:08

12-Янв-11

Электронная музыка (video) ·· Inna - Amazing (Live Pour La Tolerance 06.11.2010) [2010, Pop, HDTV ] AqvaGen 382217724365 MB 0 0 1294848489

19:08

12-Янв-11

Электронная музыка (video) ·· Inna - Amazing (Live At Eska Music Awards 2010) [2010 г., Pop, TVRip] Galfimbul 132642660126 MB 0 0 1294845910

18:25

12-Янв-11

Электронная музыка (video) ·· Inna - Amazing [2009г., Dance, DVDRip] Galfimbul 5298143951 MB 0 0 1294845868

18:24

12-Янв-11

Электронная музыка (video) ·· Inna - Amazing (Sasha Flash Mix) VJ By Lecoq [2009 г., Pop, DVDRip] Galfimbul 173350916165 MB 0 0 1294845806

18:23

12-Янв-11

Электронная музыка (video) ·· Inna - Amazing [2009 г., Pop, HDTVRip] Galfimbul 3392934032 MB 0 0 1294845766

18:22

12-Янв-11

Электронная музыка (video) ·· Inna - Amazing [2009 г., Pop, HDTVRip] Galfimbul 5620955254 MB 0 0 1294845580

18:19

12-Янв-11

Электронная музыка (video) ·· Inna - Hot, Amazing ( Live mad awards remix 2010 ) [2010 г., Pop, TVRip] Galfimbul 198004039189 MB 0 0 1294846002

18:26

12-Янв-11

Еще никто не оставлял запись к записи скачать торрент Inna - Amazing . Будь первым!

!Обратная связь