Скачать через торрент музыку Tiesto feat.Nelly Furtado - Who wants to be alone бесплатно без регистрации torrent

Если у вас наблюдаются проблемы со скриншотами, переходом по ссылками, скачиванием торрентов - проблемы в блокировщике рекламы AdBlock. #хорошегоДня!


Статистика раздачи
Размер:  314 MB   |    Зарегистрирован:  6 лет 6 месяцев   |    .torrent скачан:  39 раз   |   
Раздают:  1  
   
Загрузка...
 
Автор Сообщение

AqvaGen


Tiesto feat.Nelly Furtado - Who wants to be alone

Год выпуска: 2010
Жанр: Trance
Продолжительность: 00:03:57

ID : 1
Complete name : F:\TORENTRAZDACHI\HD\Tiesto feat.Nelly Furtado - Who wants to be alone.ts
Format : MPEG-TS
File size : 314 MiB
Duration : 3mn 57s
Overall bit rate : 11.1 Mbps

Video
ID : 2000 (0x7D0)
Menu ID : 1 (0x1)
Format : AVC
Format/Info : Advanced Video Codec
Format profile : Main@L4.0
Format settings, CABAC : Yes
Format settings, ReFrames : 4 frames
Format settings, GOP : M=1, N=38
Duration : 3mn 57s
Bit rate : 10.1 Mbps
Width : 1 920 pixels
Height : 1 080 pixels
Display aspect ratio : 16:9
Frame rate : 25.000 fps
Color space : YUV
Chroma subsampling : 4:2:0
Bit depth : 8 bits
Scan type : Interlaced
Scan order : Top Field First
Bits/(Pixel*Frame) : 0.195
Stream size : 287 MiB (91%)
Color primaries : BT.709-5, BT.1361, IEC 61966-2-4, SMPTE RP177
Transfer characteristics : BT.709-5, BT.1361
Matrix coefficients : BT.709-5, BT.1361, IEC 61966-2-4 709, SMPTE RP177

Audio
ID : 2002 (0x7D2)
Menu ID : 1 (0x1)
Format : AC-3
Format/Info : Audio Coding 3
Mode extension : CM (complete main)
Duration : 3mn 57s
Bit rate mode : Constant
Bit rate : 384 Kbps
Channel(s) : 2 channels
Channel positions : Front: L R
Sampling rate : 48.0 KHz
Bit depth : 16 bits
Stream size : 10.9 MiB (3%)
Language : English


Трекер:  [ 08-Апр-2011 05:55 ]

  

Скачать .torrent

Размер .torrent файла 25 KB


Размер: 314 MB
Хэш (hash) релиза: 66985e01405d201aec41b4413aaa77b5e14e23e3

Торренты, похожие на Tiesto feat.Nelly Furtado - Who wants to be alone скачать торрент

Форум Название Автор Размер S L Добавлен
Электронная музыка ·· (House) Tiesto feat. Nelly Furtado - Who Wants To Be Alone (MF 027DD, WEB) - 2002, FLAC (tracks), lossless Galfimbul 167226548159 MB 0 0 1356718200

21:10

28-Дек-12

bot

Топик был перенесен в форум Электронная музыка (video)

Перенес AqvaGen

Хотите добавить комментарий к записи скачать торрент Tiesto feat.Nelly Furtado - Who wants to be alone

!Обратная связь