Скачать через торрент музыку Scooter: Live in Hamburg бесплатно без регистрации torrent

Если у вас наблюдаются проблемы со скриншотами, переходом по ссылками, скачиванием торрентов - проблемы в блокировщике рекламы AdBlock. #хорошегоДня!


Статистика раздачи
Размер:  4.61 GB   |    Зарегистрирован:  6 лет 2 месяца   |    .torrent скачан:  38 раз   |   
Раздают:  1  
   
Загрузка...
 
Автор Сообщение

L


Scooter: Live in Hamburg

Год выпуска: 2010
Страна: Германия | Edel records
Жанр: Jumpstyle, Techno
Продолжительность: 01:35:51
Описание: Живой концерт группы Scooter 2010 г. Гамбург с лучшими своими хитами...
Scooter (произносится «Скутер») — немецкий музыкальный коллектив, ориентированный на танцевальную и энергичную музыку. Группа известна во многих странах мира, в том числе благодаря англоязычным текстам (за единичными исключениями) и названиям песен и музыкальных композиций. Наряду с такими коллективами, как Tangerine Dream, Kraftwerk, Modern Talking, Rammstein, Scorpions, Boney M, Scooter является одной из самых успешных музыкальных групп в истории Германии, что подтверждается более чем 25 миллионами продаж альбомов и синглов по всему миру.
Качество: BDRip
Формат: MKV
Видео кодек: H.264
Видео: 1280x720, 25.000 fps, ~6243 kbps
Аудио: AC3, 48.0 kHz, 5.1 ch, ~640.00 kbps
Скриншоты:
01. Intro
02. J'adore Hardcore
03. Posse (I Need You On The Floor)
04. The Sound Above My Hair
05. Stuck On Replay
06. Jumping All Over The World
07. The Question Is What Is The Question?
08. Second Skin
09. Clic Clac / Scarborough Reloaded
10. Fire
11. Fuck The Millennium / Call Me Manana
12. Weekend!
13. Bit A Bad Boy
14. One (Always Hardcore)
15. Ti Sento
16. Jump That Rock (Whatever You Want)
17. Nessaja
18. How Much Is The Fish?
19. Maria (I Like It Loud)
20. Endless Summer / Hyper Hyper / Move Your Ass!

Код:

General
Complete name                    : G:\HDTV\!Music\Scooter.Live.in.Hamburg.2010.BDRip.720p.x264.AC3.mkv
Format                           : Matroska
File size                        : 4.61 GiB
Duration                         : 1h 35mn
Overall bit rate                 : 6 880 Kbps
Movie name                       : Scooter: Live in Hamburg
Encoded date                     : UTC 2010-05-19 13:41:50
Writing application              : mkvmerge v3.2.0 ('Beginnings') built on Feb 12 2010 16:46:17
Writing library                  : libebml v0.7.9 + libmatroska v0.8.1

Video
ID                               : 1
Format                           : AVC
Format/Info                      : Advanced Video Codec
Format profile                   : High@L4.0
Format settings, CABAC           : Yes
Format settings, ReFrames        : 3 frames
Muxing mode                      : Container profile=Unknown@4.0
Codec ID                         : V_MPEG4/ISO/AVC
Duration                         : 1h 35mn
Bit rate                         : 6 103 Kbps
Nominal bit rate                 : 6 243 Kbps
Width                            : 1 280 pixels
Height                           : 720 pixels
Display aspect ratio             : 16:9
Frame rate                       : 25.000 fps
Resolution                       : 8 bits
Colorimetry                      : 4:2:0
Scan type                        : Progressive
Bits/(Pixel*Frame)               : 0.265
Stream size                      : 4.09 GiB (89%)
Writing library                  : x264 core 89 r1471M 1144615
Encoding settings                : cabac=1 / ref=3 / deblock=1:0:0 / analyse=0x3:0x133 / me=umh / subme=7 / psy=1 / psy_rd=1.00:0.00 / mixed_ref=1 / me_range=16 / chroma_me=1 / trellis=1 / 8x8dct=1 / cqm=0 / deadzone=21,11 / fast_pskip=1 / chroma_qp_offset=-2 / threads=6 / sliced_threads=0 / nr=0 / decimate=1 / interlaced=0 / constrained_intra=0 / bframes=3 / b_pyramid=0 / b_adapt=1 / b_bias=0 / direct=1 / wpredb=1 / wpredp=2 / keyint=250 / keyint_min=25 / scenecut=40 / intra_refresh=0 / rc_lookahead=40 / rc=2pass / mbtree=1 / bitrate=6243 / ratetol=1.0 / qcomp=0.60 / qpmin=10 / qpmax=51 / qpstep=4 / cplxblur=20.0 / qblur=0.5 / vbv_maxrate=25000 / vbv_bufsize=25000 / ip_ratio=1.40 / aq=1:1.00 / pulldown=0 / nal_hrd=vbr
Language                         : German

Audio
ID                               : 2
Format                           : AC-3
Format/Info                      : Audio Coding 3
Codec ID                         : A_AC3
Duration                         : 1h 35mn
Bit rate mode                    : Constant
Bit rate                         : 640 Kbps
Channel(s)                       : 6 channels
Channel positions                : Front: L C R, Side: L R, LFE
Sampling rate                    : 48.0 KHz
Stream size                      : 439 MiB (9%)
Title                            : GER
Language                         : German


Трекер:  [ 29-Июл-2011 09:49 ]

  

Скачать .torrent

Размер .torrent файла 23 KB


Размер: 4.61 GB
Хэш (hash) релиза: 924161d80dc475234c92bea08b03c0f8469f89e3

Торренты, похожие на Scooter: Live in Hamburg скачать торрент

Форум Название Автор Размер S L Добавлен
Электронная музыка (video) ·· Scooter - Live in Hamburg (Студия: Edel records) [2010 г., Jumpstyle, Techno, HDRip] Demonessa 15479746561.44 GB 0 0 1298846132

01:35

28-Фев-11

Электронная музыка (video) ·· Scooter: Live in Hamburg [2010 г., Jumpstyle, Techno, Blu-ray, 1080i] AqvaGen 3610815832833.63 GB 0 0 1294848470

19:07

12-Янв-11

Электронная музыка (video) ·· Scooter: Live in Hamburg [2010 г., Jumpstyle, Techno, BDRip 1080p] L 84409539567.86 GB 0 0 1294848461

19:07

12-Янв-11

Электронная музыка (video) ·· Scooter - Live In Hamburg [2010 г., Jumpstyle, Techno, DVDRip] Galfimbul 23470190682.19 GB 0 0 1294845786

18:23

12-Янв-11

Электронная музыка (video) ·· Scooter - Live In Hamburg [2010 г., Jumpstyle, Techno, DVDRip] XviD Galfimbul 23042232322.15 GB 0 0 1294845545

18:19

12-Янв-11

Электронная музыка (video) ·· Scooter - Live In Hamburg [2010 г., Jumpstyle, Techno, DVD5 (Сжатый)] Galfimbul 46682902574.35 GB 0 0 1294835483

15:31

12-Янв-11

Электронная музыка (video) ·· Scooter - Live In Hamburg [2010 г., Jumpstyle, Techno, DVD9] Galfimbul 61564059695.73 GB 0 0 1294835460

15:31

12-Янв-11

Электронная музыка (video) ·· Scooter & Antonella Ruggiero - Ti Sento (Offical MV); Ti Sento (Offical Extended Mix); Ti Sento (Live In Hamburg) [2009-2010; Hard Trance; TVRip-RemuX; DVD] Galfimbul 646387722616 MB 0 0 1294845650

18:20

12-Янв-11

Еще никто не оставлял запись к записи скачать торрент Scooter: Live in Hamburg . Будь первым!

!Обратная связь