Скачать через торрент музыку Moby - Живое выступление на фестивале "EXIT" бесплатно без регистрации torrent

Если у вас наблюдаются проблемы со скриншотами, переходом по ссылками, скачиванием торрентов - проблемы в блокировщике рекламы AdBlock. #хорошегоДня!


Статистика раздачи
Размер:  2.5 GB   |    Зарегистрирован:  6 лет 2 месяца   |    .torrent скачан:  35 раз   |   
Раздают:  1  
   
Загрузка...
 
Автор Сообщение

L


Moby. Живое выступление на фестивале "EXIT"

Год выпуска: 2009
Жанр: Electronic
Продолжительность: 42:08

Director: Greg Alan
Producers: Ashley Cowan, Darren Emerson

Треклист:
1. Go
2. Bodyrock
3. Porcelain
4. Mistake
5. Pale Horses
6. Extreme Ways
7. Lift Me Up
8. Why Does My Heart Feel So Bad?
9. Feeling So Real

Качество: HDTV
Формат: MPEG-TS
Видео кодек: H.264
Аудио кодек: AC-3
Видео: MPEG4 Video (H264) 1920x1080 25.00fps 7 519 Kbps
Аудио: Dolby AC3 48000Hz 6ch 384 Kbps
General
ID : 10
Complete name : D:\2009 MPEG\MTVNHD - MOBY - Live - EXIT_bySat.ts
Format : MPEG-TS
File size : 2.50 GiB
Duration : 42mn 9s
Overall bit rate : 8 492 Kbps

Video
ID : 326 (0x146)
Menu ID : 12106 (0x2F4A)
Format : AVC
Format/Info : Advanced Video Codec
Format profile : Main@L4.0
Format settings, CABAC : Yes
Format settings, ReFrames : 4 frames
Duration : 42mn 9s
Bit rate : 7 519 Kbps
Width : 1 920 pixels
Height : 1 080 pixels
Display aspect ratio : 16/9
Frame rate : 25.000 fps
Resolution : 24 bits
Colorimetry : 4:2:0
Scan type : Interlaced
Scan order : Top Field First
Bits/(Pixel*Frame) : 0.145
Stream size : 2.21 GiB (89%)

Audio
ID : 406 (0x196)
Menu ID : 12106 (0x2F4A)
Format : AC-3
Format/Info : Audio Coding 3
Duration : 42mn 8s
Bit rate mode : Constant
Bit rate : 384 Kbps
Channel(s) : 6 channels
Channel positions : Front: L C R, Surround: L R, LFE
Sampling rate : 48.0 KHz
Video delay : 146ms
Stream size : 116 MiB (5%)
Language : English
Language, more info : Clean effects


Трекер:  [ 29-Июл-2011 09:37 ]

  

Скачать .torrent

Размер .torrent файла 13 KB


Размер: 2.5 GB
Хэш (hash) релиза: 4af25abb1b6e8b539ab190ad044a2164b349531e

Еще никто не оставлял запись к записи скачать торрент Moby - Живое выступление на фестивале "EXIT" . Будь первым!

!Обратная связь