Sensation Celebrate Life Amsterdam 2010 torrent

, , - AdBlock. #!


4.37 GB   |    :  6 9    |    .torrent :  64    |   
1  
   
...
 

AqvaGen



Sensation Celebrate Life Amsterdam 2010
: House
: THE SHOW - 00:58:19
: 2010
:
Mr White
Sunnery James & Ryan Marciano
The MIX
Swedish House Mafia
Joris Voorn and 2000 and One
Chuckie
: HDTVRip
: MKV
: H.264
: AC3
: AVC at 10,1 / Aspect: 1920 x 1080 (1.778) at 25.000 fps
: AC-3 at 448 / Infos: 6 (), 48,0

:

General
Complete name : C:\Users\\Desktop\Sensation.Celebrate.Life.Amsterdam.2010.1080p.MBluRay.x264-TREBLE.mkv
Format : Matroska
File size : 4.37 GiB
Duration : 58mn 19s
Overall bit rate : 10.7 Mbps
Encoded date : UTC 2010-11-05 15:47:40
Writing application : mkvmerge v4.2.0 ('No Talking') gemaakt op Jul 28 2010 18:38:23
Writing library : libebml v1.0.0 + libmatroska v1.0.0

Video
ID : 1
Format : AVC
Format/Info : Advanced Video Codec
Format profile : High@L4.1
Format settings, CABAC : Yes
Format settings, ReFrames : 4 frames
Muxing mode : Header stripping
Codec ID : V_MPEG4/ISO/AVC
Duration : 58mn 19s
Bit rate : 10.3 Mbps
Width : 1 920 pixels
Height : 1 080 pixels
Display aspect ratio : 16:9
Frame rate : 25.000 fps
Color space : YUV
Chroma subsampling : 4:2:0
Bit depth : 8 bits
Scan type : Progressive
Bits/(Pixel*Frame) : 0.198
Stream size : 4.11 GiB (94%)
Writing library : x264 core 107 r1745 4785e8e
Encoding settings : cabac=1 / ref=4 / deblock=1:0:0 / analyse=0x3:0x133 / me=umh / subme=7 / psy=1 / psy_rd=1.00:0.00 / mixed_ref=1 / me_range=16 / chroma_me=1 / trellis=1 / 8x8dct=1 / cqm=0 / deadzone=21,11 / fast_pskip=1 / chroma_qp_offset=-2 / threads=6 / sliced_threads=0 / nr=0 / decimate=1 / interlaced=0 / constrained_intra=0 / bframes=3 / b_pyramid=2 / b_adapt=2 / b_bias=0 / direct=3 / weightb=1 / open_gop=0 / weightp=2 / keyint=250 / keyint_min=25 / scenecut=40 / intra_refresh=0 / rc=2pass / mbtree=0 / bitrate=10287 / ratetol=1.0 / qcomp=0.60 / qpmin=10 / qpmax=51 / qpstep=4 / cplxblur=20.0 / qblur=0.5 / ip_ratio=1.40 / pb_ratio=1.30 / aq=1:1.00
Language : English

Audio
ID : 2
Format : AC-3
Format/Info : Audio Coding 3
Mode extension : CM (complete main)
Muxing mode : Header stripping
Codec ID : A_AC3
Duration : 58mn 19s
Bit rate mode : Constant
Bit rate : 448 Kbps
Channel(s) : 6 channels
Channel positions : Front: L C R, Side: L R, LFE
Sampling rate : 48.0 KHz
Bit depth : 16 bits
Stream size : 187 MiB (4%)
Title : English
Language : English

Menu
00:00:00.000 : en:00:00:00.000
00:03:51.800 : en:00:03:51.800
00:08:09.160 : en:00:08:09.160
00:10:28.360 : en:00:10:28.360
00:19:15.720 : en:00:19:15.720
00:35:08.560 : en:00:35:08.560
00:43:17.720 : en:00:43:17.720
00:49:41.360 : en:00:49:41.360
00:50:11.560 : en:00:50:11.560


 ·  , , FAQ-
:  [ 13--2011 13:13 ]

  

.torrent

.torrent 22 KB


: 4.37 GB
(hash) : c747b1887d984ac885adf901f2575d30ad6c9fe2
··
...

, Sensation Celebrate Life Amsterdam 2010

S L
(lossless) ·· (House) VA - Sensation Celebrate Life Amsterdam 2010 - 2010, FLAC (image+.cue) lossless AqvaGen 1001568331955 MB 0 0 1293046923

22:42

22--10

bot

(video)

AqvaGen

Sensation Celebrate Life Amsterdam 2010

!