Скачать через торрент музыку Depeche Mode - Tour Of The Universe - Live In Barcelona бесплатно без регистрации torrent

Если у вас наблюдаются проблемы со скриншотами, переходом по ссылками, скачиванием торрентов - проблемы в блокировщике рекламы AdBlock. #хорошегоДня!


Статистика раздачи
Размер:  11.31 GB   |    Зарегистрирован:  6 лет 2 месяца   |    .torrent скачан:  42 раза   |   
Раздают:  1  
   
Загрузка...
 
Автор Сообщение

L


Depeche Mode - Tour Of The Universe - Live In Barcelona

Жанр: Electronic, Synthpop
Продолжительность: 02:01:26
Год выпуска: 2010
Описание: Tour Of The Universe, состоявший из 102 концертов в 40 странах мира, увидели более 2.7 миллиона человек, что сделало его одним из самых успешных туров в современной истории. Дэйв Гаан, Мартин Гор и Эндрю Флетчер исполнили материал, охватиший почти 30-летнюю историю группы.
Концерт был записан во время двух замечательных выступлений в Барселоне (Испания) в Palau St.Jordi 20-21 ноября 2009 года и состоит из 21 трека.
Релиз выходит на лейбле Mute. Концерт состоит из самых известных и популярных композиций.

Треклист :
01 - In Chains
02 - Wrong
03 - Hole To Feed
04 - Walking In My Shoes
05 - It's No Good
06 - A Question Of Time
07 - Precious
08 - Fly On The Windscreen
09 - Jezebel
10 - Home
11 - Come Back
12 - Policy Of Truth
13 - In Your Room
14 - I Feel You
15 - Enjoy The Silence
16 - Never Let Me Down Again
17 - Dressed In Black
18 - Stripped
19 - Behind The Wheel
20 - Personal Jesus
21 - Waiting For The Night

Качество: BDRip
Контейнер: MKV
Видео кодек: H.264
Аудио кодек: DTS, AC3, LPCM
Видео: MPEG4/AVC, 1920x1080, 1080p, 9476 kbps, 29.97 fps
Аудио 1: Английский DTS 5.1, 1510 kbps 48 KHz, 24bit
Аудио 2: Английский AC3 5.1, 640 kbps, 48 KHz, 16 bit
Аудио 3: Английский LPCM 2.0, 1536 kbps, 48 KHz, 16 bit
Depeche Mode.Tour of the Universe. Live in Barcelona.2010. BDRip.1080p..mkv
General
Complete name : D:\Depeche Mode.Tour of the Universe. Live in Barcelona.2010. BDRip.1080p..mkv
Format : Matroska
File size : 11.3 GiB
Duration : 2h 1mn
Overall bit rate : 13.4 Mbps
Movie name : 00004 track
Encoded date : UTC 2010-11-14 16:37:18
Writing application : mkvmerge v3.3.0 ('Language') сборка от May 14 2010 17:11:50
Writing library : libebml v0.8.0 + libmatroska v0.9.0
Video #1
ID : 1
Format : AVC
Format/Info : Advanced Video Codec
Format profile : High@L4.0
Format settings, CABAC : Yes
Format settings, ReFrames : 3 frames
Muxing mode : Container profile=Unknown@4.0
Codec ID : V_MPEG4/ISO/AVC
Duration : 2h 1mn
Width : 1 920 pixels
Height : 1 080 pixels
Display aspect ratio : 16:9
Frame rate : 29.970 fps
Resolution : 8 bits
Colorimetry : 4:2:0
Scan type : Progressive
Writing library : x264 core 80 r1376kGIT 3feaec2
Encoding settings : cabac=1 / ref=3 / deblock=1:0:0 / analyse=0x3:0x133 / me=umh / subme=7 / psy=1 / psy_rd=1.0:0.0 / mixed_ref=1 / me_range=16 / chroma_me=1 / trellis=1 / 8x8dct=1 / cqm=0 / deadzone=21,11 / fast_pskip=1 / chroma_qp_offset=-2 / threads=3 / sliced_threads=0 / nr=0 / decimate=1 / mbaff=0 / constrained_intra=0 / bframes=3 / b_pyramid=0 / b_adapt=1 / b_bias=0 / direct=3 / wpredb=1 / wpredp=2 / keyint=300 / keyint_min=30 / scenecut=40 / rc_lookahead=40 / rc=crf / mbtree=1 / crf=22.0 / qcomp=0.60 / qpmin=10 / qpmax=51 / qpstep=4 / vbv_maxrate=25000 / vbv_bufsize=25000 / ip_ratio=1.40 / aq=1:1.00
Audio #2
ID : 2
Format : DTS
Format/Info : Digital Theater Systems
Codec ID : A_DTS
Duration : 2h 1mn
Bit rate mode : Constant
Bit rate : 1 510 Kbps
Channel(s) : 6 channels
Channel positions : Front: L C R, Side: L R, LFE
Sampling rate : 48.0 KHz
Resolution : 24 bits
Stream size : 1.28 GiB (11%)
Language : English
Audio #3
ID : 3
Format : AC-3
Format/Info : Audio Coding 3
Format_Settings_ModeExtension : CM (complete main)
Codec ID : A_AC3
Duration : 2h 1mn
Bit rate mode : Constant
Bit rate : 640 Kbps
Channel(s) : 6 channels
Channel positions : Front: L C R, Side: L R, LFE
Sampling rate : 48.0 KHz
Stream size : 555 MiB (5%)
Language : English
Audio #4
ID : 4
Format : PCM
Codec ID : A_PCM/INT/LIT
Duration : 2h 1mn
Bit rate mode : Constant
Channel(s) : 2 channels
Sampling rate : 48.0 KHz
Resolution : 16 bits
Language : English


Трекер:  [ 29-Июл-2011 09:38 ]

  

Скачать .torrent

Размер .torrent файла 57 KB


Размер: 11.31 GB
Хэш (hash) релиза: 9201378e2a516850dc94ae084519cba886eb0ff3

Торренты, похожие на Depeche Mode - Tour Of The Universe - Live In Barcelona скачать торрент

Форум Название Автор Размер S L Добавлен
Электронная музыка (video) ·· Depeche Mode - Tour of the Universe - Live in Barcelona (Live)[2000 г., SynthPop,Blu-ray 1080i] triolan64 7110522717066.22 GB 0 0 1291184465

09:21

1-Дек-10

Электронная музыка (video) ·· Depeche Mode - Tour of the Universe - Live in Barcelona (Bonus tracks) [2010, Electronic, Synthpop, BDRip 1080p] L 18656131091.74 GB 0 0 1294848474

19:07

12-Янв-11

Электронная музыка (video) ·· Depeche Mode - Tour of the Universe - Live in Barcelona [2010, SynthPop, BDRip 720p] L 1112224093410.36 GB 0 0 1294848469

19:07

12-Янв-11

Электронная музыка (video) ·· Depeche Mode - Tour of the Universe - Live in Barcelona [2010, SynthPop, Blu-ray 1080i] L 7110522717066.22 GB 0 0 1294848445

19:07

12-Янв-11

Электронная музыка (video) ·· Depeche Mode - Tour of the Universe - Live in Barcelona (Bonuses) [2010, Synth-Pop / Electronic, DVDRip] Galfimbul 13667901441.27 GB 0 0 1294845647

18:20

12-Янв-11

Электронная музыка (video) ·· Depeche Mode - Tour Of The Universe: Live In Barcelona [2010 г., Electronic, SynthPop, BDRip] L 23408762882.18 GB 0 0 1294845447

18:17

12-Янв-11

Электронная музыка (video) ·· Depeche Mode - Tour of the Universe. Live in Barcelona [2010, SynthPop, 2хDVD9] Galfimbul 1681439129615.66 GB 0 0 1294835423

15:30

12-Янв-11

Электронная музыка (video) ·· Depeche Mode Tour of the Universe dvd2(Live in Barcelona) [2010, Synthpop, DVDRip] Galfimbul 18370019651.71 GB 0 0 1294845505

18:18

12-Янв-11

Электронная музыка (video) ·· Depeche Mode Tour of the Universe dvd1( Live in Barcelona) [2010, Synthpop, DVDRip] Galfimbul 27176306582.53 GB 0 0 1294845489

18:18

12-Янв-11

Еще никто не оставлял запись к записи скачать торрент Depeche Mode - Tour Of The Universe - Live In Barcelona . Будь первым!

!Обратная связь