Скачать через торрент музыку SirMatze - Sexy Striptease бесплатно без регистрации torrent

Если у вас наблюдаются проблемы со скриншотами, переходом по ссылками, скачиванием торрентов - проблемы в блокировщике рекламы AdBlock. #хорошегоДня!


Статистика раздачи
Размер:  48 MB   |    Зарегистрирован:  5 лет 10 месяцев   |    .torrent скачан:  36 раз   |   
Раздают:  1  
   
Загрузка...
 
Автор Сообщение

Galfimbul

avatar Galfimbul


Sexy Striptease (Vocal Trance)

Год выпуска: 2009
Жанр: Vocal Trance
Продолжительность: 10:13

Режиссер: SirMatze

В ролях: Красивые девушки

Audio: 0xa106 44100Hz stereo 115Kbps [Audio0]
Video: MPEG4 Video (H264) 480x256 24.98fps 539Kbps [Video0]
01 - Funabashi - The Shelter
02 - Andrew Bennett feat. Kirsty Hawkshaw - Heaven Sent
Качество: webrip
Формат: MP4
Видео кодек: H.264
Аудио кодек: AAC
Format : MPEG-4
Format profile : Base Media / Version 2
Codec ID : mp42
File size : 48.0 MiB
Duration : 10mn 14s
Overall bit rate : 656 Kbps
Encoded date : UTC 2009-06-30 22:00:36
Tagged date : UTC 2009-06-30 22:00:36
Video #2
Format : AVC
Format/Info : Advanced Video Codec
Format profile : Baseline@L2.1
Format settings, CABAC : No
Format settings, ReFrames : 1 frame
Codec ID : avc1
Codec ID/Info : Advanced Video Coding
Duration : 10mn 13s
Bit rate mode : Variable
Bit rate : 540 Kbps
Maximum bit rate : 1 373 Kbps
Width : 480 pixels
Height : 256 pixels
Display aspect ratio : 1.875
Frame rate mode : Constant
Frame rate : 24.998 fps
Resolution : 24 bits
Colorimetry : 4:2:0
Scan type : Progressive
Bits/(Pixel*Frame) : 0.176
Stream size : 39.5 MiB (82%)
Title : (C) 2007 Google Inc. v08.13.2007.
Encoded date : UTC 2009-06-30 22:00:36
Tagged date : UTC 2009-06-30 22:00:37
Audio #1
Format : AAC
Format/Info : Advanced Audio Codec
Format version : Version 4
Format profile : LC
Format settings, SBR : No
Codec ID : 40
Duration : 10mn 14s
Bit rate mode : Variable
Bit rate : 115 Kbps
Maximum bit rate : 139 Kbps
Channel(s) : 2 channels
Channel positions : L R
Sampling rate : 44.1 KHz
Resolution : 16 bits
Stream size : 8.39 MiB (17%)
Title : (C) 2007 Google Inc. v08.13.2007.
Encoded date : UTC 2009-06-30 22:00:36
Tagged date : UTC 2009-06-30 22:00:37


Трекер:  [ 22-Ноя-2011 23:19 ]

  

Скачать .torrent

Размер .torrent файла 15 KB


Размер: 48 MB
Хэш (hash) релиза: eaadd1d12d8fc019dd4c6b307b7519ea8420d98d

Еще никто не оставлял запись к записи скачать торрент SirMatze - Sexy Striptease . Будь первым!

!Обратная связь