Скачать через торрент музыку John B - Live At Pirate Station, St. Petersburg + BackStage 31.01.09 бесплатно без регистрации torrent

Если у вас наблюдаются проблемы со скриншотами, переходом по ссылками, скачиванием торрентов - проблемы в блокировщике рекламы AdBlock. #хорошегоДня!


Статистика раздачи
Размер:  718 MB   |    Зарегистрирован:  5 лет 10 месяцев   |    .torrent скачан:  35 раз   |   
Раздают:  1  
   
Загрузка...
 
Автор Сообщение

Galfimbul

avatar Galfimbul


John B Live At Pirate Station, St. Petersburg 31.01.09



Год выпуска: 2008
Жанр: Electrostep, Drum&Bass
Длительность: 9:56 + 9:59
Режиссер: John B
В ролях: John B

Описание: Запись тусовки с личной HDCam Джона Би в Петербургский СКК+видео из-за кулис.

Информация о выступлении:
Качество: HDCamRip
Формат: M4V
Видео кодек: avc1
Аудио кодек: AAC
Видео: 9mn 56s, 4 888 Kbps, 1 280*720 pixels (16:9), 25.000 fps, 24 bits,348 MiB (97%)
Аудио: 9mn 56s, 127 Kbps, 2 channels (L R), 44.1 KHz, 16 bits, 9.02 MiB (3%)
General
Полное имя : E:\Music\1 - John B DVD Collection\John B Live At Pirate Station, St. Petersburg 31.01.09+BackStage\JohnB_PirateStationStPt_Immortal.m4v
Формат : MPEG-4
Профайл формата : Apple TV
Идентификатор кодека : M4VH
Размер файла : 357 MiB
Продолжительность : 9mn 56s
Общий поток : 5 020 Kbps
Дата кодирования : UTC 2009-03-05 18:16:57
Дата пометки : UTC 2009-03-05 18:17:08

Video
Идентификатор : 2
Формат : AVC
Формат/Информация : Advanced Video Codec
Профайл формата : High@L3.1
Параметры CABAC формата : No
Параметры ReFrames формата : 2 frames
Идентификатор кодека : avc1
Идентификатор кодека/Информация : Advanced Video Coding
Продолжительность : 9mn 56s
Вид битрейта : Variable
Битрейт : 4 888 Kbps
Ширина : 1 280 pixels
Высота : 720 pixels
Соотношение кадра : 16:9
Режим частоты кадров : Constant
Частота кадров : 25.000 fps
Разрешение : 24 bits
Колориметрия : 4:2:0
Тип развёртки : Progressive
Бит/(Пиксели*Кадры) : 0.212
Размер потока : 348 MiB (97%)
Язык : English
Дата кодирования : UTC 2009-03-05 18:16:56
Дата пометки : UTC 2009-03-05 18:17:08
colour_primaries : BT.709-5, BT.1361, IEC 61966-2-4, SMPTE RP177
transfer_characteristics : BT.709-5, BT.1361
matrix_coefficients : BT.709-5, BT.1361, IEC 61966-2-4 709, SMPTE RP177

Audio
Идентификатор : 1
Формат : AAC
Формат/Информация : Advanced Audio Codec
Версия формата : Version 4
Профайл формата : LC
Параметры SBR формата : No
Идентификатор кодека : 40
Продолжительность : 9mn 56s
Вид битрейта : Constant
Битрейт : 127 Kbps
Номинальный битрейт : 128 Kbps
Канал(ы) : 2 channels
Расположение каналов : L R
Частота : 44.1 KHz
Разрешение : 16 bits
Размер потока : 9.02 MiB (3%)
Язык : English
Дата кодирования : UTC 2009-03-05 18:16:56
Дата пометки : UTC 2009-03-05 18:17:08
Информация из-за кулис:
Качество: HDCamRip
Формат: M4V
Видео кодек: avc1
Аудио кодек: AAC
Видео: 9mn 59s, 4 888 Kbps, 1 280*720 pixels (16:9), 25.000 fps, 24 bits, 351 Мегабайт (97%)
Аудио: 9mn 59s, 127 Kbps, 2 channels (L R), 44.1 KHz, 16 bits, 9,35 Мегабайт (3%)
Общее
Полное имя : E:\Music\1 - John B DVD Collection\John B Live At Pirate Station, St. Petersburg 31.01.09+BackStage\PirateStationBackstage.m4v
Формат : MPEG-4
Профайл формата : Apple TV
Идентификатор кодека : M4VH
Размер файла : 361 Мегабайт
Продолжительность : 9 м. 59 с.
Общий поток : 5051 Кбит/сек
Дата кодирования : UTC 2009-03-08 13:08:15
Дата пометки : UTC 2009-03-08 13:08:23

Видео
Идентификатор : 2
Формат : AVC
Формат/Информация : Advanced Video Codec
Профайл формата : High@L3.1
Параметры CABAC формата : Нет
Параметры ReFrames формата : 2 кадры
Идентификатор кодека : avc1
Идентификатор кодека/Информация : Advanced Video Coding
Продолжительность : 9 м. 59 с.
Вид битрейта : Переменный
Битрейт : 4916 Кбит/сек
Ширина : 1280 пикс.
Высота : 720 пикс.
Соотношение кадра : 16:9
Режим частоты кадров : Постоянный
Частота кадров : 25,000 кадр/сек
Разрешение : 24 бит
Колориметрия : 4:2:0
Тип развёртки : Прогрессивная
Бит/(Пиксели*Кадры) : 0.213
Размер потока : 351 Мегабайт (97%)
Язык : English
Дата кодирования : UTC 2009-03-08 13:08:14
Дата пометки : UTC 2009-03-08 13:08:23
colour_primaries : BT.709-5, BT.1361, IEC 61966-2-4, SMPTE RP177
transfer_characteristics : BT.709-5, BT.1361
matrix_coefficients : BT.709-5, BT.1361, IEC 61966-2-4 709, SMPTE RP177

Аудио
Идентификатор : 1
Формат : AAC
Формат/Информация : Advanced Audio Codec
Версия формата : Version 4
Профайл формата : LC
Параметры SBR формата : Нет
Идентификатор кодека : 40
Продолжительность : 9 м. 59 с.
Вид битрейта : Постоянный
Битрейт : 132,3 Кбит/сек
Номинальный битрейт : 128 Кбит/сек
Канал(ы) : 2 канала(ов)
Расположение каналов : L R
Частота : 44,1 КГц
Разрешение : 16 бит
Размер потока : 9,35 Мегабайт (3%)
Язык : English
Дата кодирования : UTC 2009-03-08 13:08:14
Дата пометки : UTC 2009-03-08 13:08:23


Трекер:  [ 22-Ноя-2011 23:29 ]

  

Скачать .torrent

Размер .torrent файла 14 KB


Размер: 718 MB
Хэш (hash) релиза: 2c273e8e3ac967775423e14013065092092edf0d

Еще никто не оставлял запись к записи скачать торрент John B - Live At Pirate Station, St. Petersburg + BackStage 31.01.09 . Будь первым!

!Обратная связь