Скачать через торрент музыку Adam Liria - Invisible Life бесплатно без регистрации torrent

Если у вас наблюдаются проблемы со скриншотами, переходом по ссылками, скачиванием торрентов - проблемы в блокировщике рекламы AdBlock. #хорошегоДня!


Статистика раздачи
Размер:  181 MB   |    Зарегистрирован:  6 лет 9 месяцев   |    .torrent скачан:  52 раза   |   
Раздают:  1  
   
Загрузка...
 
Автор Сообщение

Alik15

avatar Alik15


Adam Liria - Invisible Life (2010)
Жанр: Trance
Продолжительность: 00:03:59
Год выпуска: 2010

Источник: сайт The Pыrate Бэй
Дополнительная информация: перед скачиванием, клип можно глянуть на YouTube

Качество: DVD
Контейнер: MPG
Видео кодек: MPEG2
Видео: 720x576, 16:9, 6 325 Kbps, PAL 25 fps
Аудио: MPEG Audio Layer 2, 224 Kbps, 2 channels, 48000 Hz
General
Complete name : Adam Liria - Invisible Life (2010) DVD.mpg
Format : MPEG-PS
File size : 181 MiB
Duration : 3mn 59s
Overall bit rate : 6 325 Kbps

Video
ID : 224 (0xE0)
Format : MPEG Video
Format version : Version 2
Format profile : Main@Main
Format settings, BVOP : Yes
Format settings, Matrix : Default
Format settings, GOP : M=3, N=12
Duration : 3mn 59s
Bit rate mode : Variable
Bit rate : 5 975 Kbps
Nominal bit rate : 8 000 Kbps
Width : 720 pixels
Height : 576 pixels
Display aspect ratio : 16:9
Frame rate : 25.000 fps
Standard : PAL
Color space : YUV
Chroma subsampling : 4:2:0
Bit depth : 8 bits
Scan type : Interlaced
Scan order : Bottom Field First
Bits/(Pixel*Frame) : 0.576
Stream size : 171 MiB (94%)

Audio
ID : 192 (0xC0)
Format : MPEG Audio
Format version : Version 1
Format profile : Layer 2
Duration : 3mn 59s
Bit rate mode : Constant
Bit rate : 224 Kbps
Channel(s) : 2 channels
Sampling rate : 48.0 KHz
Stream size : 6.40 MiB (4%)


Трекер:  [ 17-Янв-2011 21:04 ]

  

Скачать .torrent

Размер .torrent файла 14 KB


Размер: 181 MB
Хэш (hash) релиза: 4b8728c8d92d2eaaa5d545ebcff67c17b7ec8fd1

bot

Топик был перенесен в форум Электронная музыка (video)

Перенес Alik15

Хотите добавить комментарий к записи скачать торрент Adam Liria - Invisible Life

!Обратная связь