Скачать через торрент музыку Michael Mind Project - Feel Your Body бесплатно без регистрации torrent

Если у вас наблюдаются проблемы со скриншотами, переходом по ссылками, скачиванием торрентов - проблемы в блокировщике рекламы AdBlock. #хорошегоДня!


Статистика раздачи
Размер:  21 MB   |    Зарегистрирован:  5 лет 10 месяцев   |    .torrent скачан:  32 раза   |   
Раздают:  1  
   
Загрузка...
 
Автор Сообщение

Galfimbul

avatar Galfimbul


Michael Mind Project - Feel Your BodyГод выпуска: 2010
Жанр: House
Продолжительность: 00:03:06

Качество: WebRip
Формат: AVI
Видео кодек: H.264
Аудио кодек: MP3
Видео: MPEG4 (H264) 720x288 25.00fps 767 Kbps
Аудио: MPEG-1 Audio Layer 3 48000Hz stereo 192 kbps
E:\Мои Раздачи\Michael Mind Project - Feel Your Body\Michael Mind Project - Feel Your Body.avi
General
Complete name : E:\Мои Раздачи\Michael Mind Project - Feel Your Body\Michael Mind Project - Feel Your Body.avi
Format : AVI
Format/Info : Audio Video Interleave
File size : 21.4 MiB
Duration : 3mn 6s
Overall bit rate : 963 Kbps
Video #0
ID : 0
Format : MPEG-4 Visual
Format profile : Simple@L1
Format settings, BVOP : No
Format settings, QPel : No
Format settings, GMC : No warppoints
Format settings, Matrix : Default (H.263)
Codec ID : FMP4
Duration : 3mn 6s
Bit rate : 766 Kbps
Width : 720 pixels
Height : 288 pixels
Display aspect ratio : 2.500
Frame rate : 25.000 fps
Resolution : 8 bits
Colorimetry : 4:2:0
Scan type : Progressive
Bits/(Pixel*Frame) : 0.148
Stream size : 17.0 MiB (80%)
Writing library : Lavc51.40.4
Audio #1
ID : 1
Format : MPEG Audio
Format version : Version 1
Format profile : Layer 3
Format_Settings_Mode : Joint stereo
Format_Settings_ModeExtension : MS Stereo
Codec ID : 55
Codec ID/Hint : MP3
Duration : 3mn 6s
Bit rate mode : Constant
Bit rate : 192 Kbps
Channel(s) : 2 channels
Sampling rate : 44.1 KHz
Stream size : 4.26 MiB (20%)
Alignment : Aligned on interleaves
Interleave, duration : 1011 ms (25.27 video frames)
Interleave, preload duration : 208 ms
Title : audio
Writing library : LAME3.97
Encoding settings : -m j -V 4 -q 0 -lowpass 18.6 -b 192


Трекер:  [ 23-Ноя-2011 11:00 ]

  

Скачать .torrent

Размер .torrent файла 14 KB


Размер: 21 MB
Хэш (hash) релиза: d5b3712dd1baf5ed610417830c425da2690146a9

Еще никто не оставлял запись к записи скачать торрент Michael Mind Project - Feel Your Body . Будь первым!

!Обратная связь