Скачать через торрент музыку Will Johnston - Bora Bora, Ibiza бесплатно без регистрации torrent

Если у вас наблюдаются проблемы со скриншотами, переходом по ссылками, скачиванием торрентов - проблемы в блокировщике рекламы AdBlock. #хорошегоДня!


Статистика раздачи
Размер:  313 MB   |    Зарегистрирован:  5 лет 10 месяцев   |    .torrent скачан:  26 раз   |   
Раздают:  1  
   
Загрузка...
 
Автор Сообщение

chester

avatar chester


Will Johnston @ Bora Bora, Ibiza

Год выпуска: 2009
Жанр: House
Продолжительность: 1:00:25

Режиссер: dancetrippin.tv

В ролях: Will Johnston

Описание: Will Johnston drops in for another session at his former Ibiza residence... Bora Bora.

Качество: WebRip
Формат: MP4
Видео кодек: H.264
Аудио кодек: AAC
Видео: MPEG4 Video (H.264), 640x352, 25.00fps, 600-2484 Kbps (overall 725 Kbps)
Аудио: VBR 124-216 Kbps, 44100Hz, stereo
1. (0:10) Prince - Lets Go Crazy (Intro)
2. (1:10) Sandy Rivera - Whatever [Andy Daniel Mix]
3. (7:19) Quacko - Shake Your Booty Down
4. (12:30) Julian Chaptal - Mamdaye
5. (15:13) Simon Gain & Joey Seminara - Mulani
6. (19:40) Simon & Shaker - Sunday @ Mambo
7. (26:05) Donna Summer - I Feel Love [Danny Howells Mix]
8. (30:04) Robbie Rivera feat. Foremost Poets - Zandoonga [Alarmed Edit]
9. (32:03) Oscar G - Back To U [Robbie Rivera Mix]
10. (35:47) Niels Van Gogh - Pulverturm 2.0 [Vox Tool]
11. (37:32) Cevin Fisher - The Freaks Come Out [Tim Davidson Mix]
12. (44:00) Armand Van Helden - Professional Widow [Dj Wady Mix]
13. (49:21) Kike Mayor - J'adore [Dj Paulo Mix]
14. (54:20) Hardrive - Deep Inside [Harry Choo Choo Romero Mix]
15. (54:36) Murk - Some Lovin/Remember Beat Tool
16. (57:19) Julien Jabre - Swimming Places [Sebastian Ingrosso Mix]
 
GeneralComplete name : F:\#122 Will Johnston @ Bora Bora, Ibiza.mp4Format
: MPEG-4Format profile : Base MediaCodec ID : isomFile size
: 313 MiBDuration : 1h 0mnOverall bit rate : 725 KbpsEncoded date
: UTC 2009-09-17 16:00:22Tagged date : UTC 2009-09-18 16:00:42

VideoID : 1Format : AVCFormat/Info : Advanced Video CodecFormat profile
: High@L3.1Format settings, CABAC : YesFormat settings, ReFrames: 4 framesCodec ID
: avc1Codec ID/Info : Advanced Video CodingDuration : 1h 0mnBit rate mode
: VariableBit rate : 600 KbpsMaximum bit rate : 2 484 KbpsWidth : 640 pixelsHeight
: 352 pixelsDisplay aspect ratio
: 16:9Frame rate mode : ConstantFrame rate : 25.000 fpsResolution : 24 bitsColorimetry : 4:2:0Scan type
: ProgressiveBits/(Pixel*Frame) : 0.107Stream size : 258 MiB (82%)Writing library
: x264 core 72 r1217 5e9ae4cEncoding settings
: cabac=1 / ref=4 / deblock=1:0:0 / analyse=0x3:0x113 / me=hex
/ subme=7 / psy=1 / psy_rd=1.0:0.0 / mixed_ref=1 / me_range=16
/ chroma_me=1 / trellis=1 / 8x8dct=1 / cqm=0 / deadzone=21,11 /
chroma_qp_offset=-2 / threads=8 / nr=0 / decimate=1 / mbaff=0 /
bframes=4 / b_pyramid=0 / b_adapt=1 / b_bias=0 / direct=3 /
wpredb=1 / keyint=75 / keyint_min=25 / scenecut=40 / rc_lookahead=40 / rc=cbr / mbtree=1
/ bitrate=600 / ratetol=1.0 / qcomp=0.60 / qpmin=10 / qpmax=51 /
qpstep=4 / vbv_maxrate=900 / vbv_bufsize=3000 / ip_ratio=1.40
/ aq=1:1.00Encoded date
: UTC 2009-09-17 16:00:22Tagged date: UTC 2009-09-17 16:00:39
AudioID : 2Format : AACFormat/Info : Advanced Audio CodecFormat version
: Version 4Format profile : LCFormat settings, SBR : NoCodec ID
: 40Duration : 1h 0mnBit rate mode : VariableBit rate : 124 KbpsMaximum bit rate
: 216 KbpsChannel(s) : 2 channelsChannel positions : L RSampling rate
: 44.1 KHzResolution : 16 bitsStream size : 53.8 MiB (17%)Encoded date
: UTC 2009-09-17 16:00:31Tagged date : UTC 2009-09-17 16:00:39


Трекер:  [ 23-Ноя-2011 01:39 ]

  

Скачать .torrent

Размер .torrent файла 25 KB


Размер: 313 MB
Хэш (hash) релиза: c1dc954f7180403b145cb2087540fb3c32d8bf1b

bot

Топик был перенесен в форум Электронная музыка (video)

Перенес chester

Хотите добавить комментарий к записи скачать торрент Will Johnston - Bora Bora, Ibiza

!Обратная связь