Скачать через торрент музыку Sasha & John Digweed - Delta Heavy бесплатно без регистрации torrent

Если у вас наблюдаются проблемы со скриншотами, переходом по ссылками, скачиванием торрентов - проблемы в блокировщике рекламы AdBlock. #хорошегоДня!


Статистика раздачи
Размер:  545 MB   |    Зарегистрирован:  5 лет 10 месяцев   |    .torrent скачан:  27 раз   |   
Раздают:  1  
   
Загрузка...
 
Автор Сообщение

Galfimbul

avatar Galfimbul


Sasha & John Digweed - Delta Heavy (2006) DVDRip

Год выпуска: 2006
Страна: Wales
Жанр: documentary
Продолжительность: 56:53

Описание: Delta Heavy - это тур по Америке двух великих DJ'ев Sasha и John Digweed. За 6 недель этого клубного тура, на их выступлениях побывало 85 000 человек! Delta Heavy номинирован на премию DanceStar USA в категории Best Event.

Тур Delta Heavy был организован по типу старых добрых рокинрольных концертов. Два крутых перца Sasha и John Digweed разъезжали на автобусе по всей Америке и крутили свои пластинки на клубных мега-шоу. Организовал этот DJ тур Jimmy Van M.

Данный DVD содержит живые (Live) видео с клубных вечеринок, где играли Sasha и John Digweed, а так же интервью и биографии, VJ mix.

Качество: DVDRip
Формат: AVI
Видео кодек: DivX
Аудио кодек: MPEG Audio

Видео: 720х480, 1197 Кбит/сек, 29.97 кадра/сек
Аудио: 48000 Гц, Стерео, 128 Кбит/сек
Format : AVI
Format/Info : Audio Video Interleave
File size : 545 MiB
Duration : 56mn 53s
Overall bit rate : 1 341 Kbps

Video
ID : 0
Format : MPEG-4 Visual
Format profile : Simple@L1
Format settings, BVOP : No
Format settings, QPel : No
Format settings, GMC : No warppoints
Format settings, Matrix : Default (H.263)
Codec ID : DIVX
Codec ID/Info : Project Mayo
Codec ID/Hint : DivX 4
Duration : 56mn 53s
Bit rate : 1 199 Kbps
Width : 720 pixels
Height : 480 pixels
Display aspect ratio : 3:2
Frame rate : 29.970 fps
Standard : NTSC
Resolution : 8 bits
Colorimetry : 4:2:0
Scan type : Progressive
Bits/(Pixel*Frame) : 0.116
Stream size : 488 MiB (89%)
Writing library : avc2.0.11.1110

Audio
ID : 1
Format : MPEG Audio
Format version : Version 1
Format profile : Layer 3
Mode : Joint stereo
Format_Settings_ModeExtension : MS Stereo
Codec ID : 55
Codec ID/Hint : MP3
Duration : 56mn 52s
Bit rate mode : Constant
Bit rate : 128 Kbps
Channel(s) : 2 channels
Sampling rate : 48.0 KHz
Stream size : 52.1 MiB (10%)
Alignment : Aligned on interleaves
Interleave, duration : 24 ms (0.72 video frame)


Трекер:  [ 23-Ноя-2011 10:57 ]

  

Скачать .torrent

Размер .torrent файла 11 KB


Размер: 545 MB
Хэш (hash) релиза: 3163d73fc4661ad921645968420684de60ec722a

Торренты, похожие на Sasha & John Digweed - Delta Heavy скачать торрент

Форум Название Автор Размер S L Добавлен
Электронная музыка (video) ·· Sasha & John Digweed - Delta Heavy [2006 г., documentary, DVD5] Galfimbul 46946201604.37 GB 0 0 1294835566

15:32

12-Янв-11

Еще никто не оставлял запись к записи скачать торрент Sasha & John Digweed - Delta Heavy . Будь первым!

!Обратная связь